Welcome Guest ( Log In | Register )

> Releases Upload / Добавление релизов

Добавить релиз тут / Click here to add release
Рекомендованные обменники / Recommended file shares

 
Reply to this topicStart new topic
> Warhymn - Cult Of Primordials [ep] (2022), Black Metal
post Nov 23 2022, 17:24:02
Post #1

Правь статус, ####!111
**************
Group: Металариец
Posts: 4,148
Releases: 2612
On Forums: 12 years 2 weeks
Thanks: 47633 time(s)
Russian Federation


(IMG:https://metalarea.org/images/audiocovers/2022_Nov/acov_tid372781_thumb.jpg)

*Artist: Warhymn
*Album: Cult Of Primordials [ep]
*Year: 2022
*Genre: Black Metal
*Country: Romania (IMG:https://metalarea.org/forum/style_images/flags/Romania.png)
*Format: mp3@CBR320kbps
*Size: 59MB

Tracklist:
1.Dominus Terrae I (Lumial's Fall) 03:09
2.Cult of Primordials 08:00
3.Dominus Terrae II (Lumial's Ascension) 06:17
4.Fresh Spring in this New World 06:03
5.Opus 02:16
******************************
Total playing time: 25:45



Technical info
(IMG:https://metalarea.org/images/spectrogram/2022_Nov/2fec1ddb0299b6174b778acc3292cab5.png)
Input File: 04-Fresh Spring in this New World.mp3
Channels : 2
Sample Rate : 44100
Precision : 16-bit
Duration : 00:06:03.78 = 16042610 samples = 27283.4 CDDA sectors
File Size : 14.6M
Bit Rate : 320k
Sample Encoding: MPEG audio (layer I, II or III)
Comments :
Title=Fresh Spring in this New World
Artist=WarHymn
Album=Cult of Primordials
Tracknumber=04
Year=2022
Genre=Black Metal



Register


Go to the top of the page
  Insert nick Quick quote
+Quote Post

Reply to this topicStart new topic
1 User(s) are reading this topic (1 Guests and 0 Anonymous Users)
0 Members:

 



- Lo-Fi Version Support form
Copyrights and abuse reports form
Time is now: 5th December 2022 - 15:04:04