Welcome Guest ( Log In | Register )

> Releases Upload / Добавление релизов

Добавить релиз тут / Click here to add release
Рекомендованные обменники / Recommended file shares

> Нейротоксин - Ego Sum Venenum (2022), Black Metal
post Nov 23 2022, 17:55:25
Post #1

Правь статус, ####!111
**************
Group: Металариец
Posts: 4,149
Releases: 2612
On Forums: 12 years 2 weeks
Thanks: 47634 time(s)
Russian Federation


(IMG:https://metalarea.org/images/audiocovers/2022_Nov/acov_tid372782_thumb.jpg)

*Artist: Нейротоксин
*Album: Ego Sum Venenum
*Year: 2022
*Genre: Black Metal
*Country: Russian Federation (IMG:https://metalarea.org/forum/style_images/flags/Russian%20Federation.png)
*Format: mp3@CBR320kbps
*Size: 94MB

Tracklist:
01.Я остаюсь 04:37
02.Завтра 03:25
03.Obsd 04:13
04.Путь просветления 04:50
05.Ego Sum Venenum 04:12
06.Замороженный 03:58
07.Улыбайся 02:01
08.Тьма и полноценность 03:34
09.Квартира 03:28
10.За долю секунды 05:03
******************************
Total playing time: 39:21

(IMG:https://metalarea.org/images/youtube.png)

Technical info
(IMG:https://metalarea.org/images/spectrogram/2022_Nov/637cf5eefb51384d8df272a20480a3d8.png)
Input File: 04. Путь просветления.mp3
Channels : 2
Sample Rate : 44100
Precision : 16-bit
Duration : 00:04:50.00 = 12789176 samples = 21750.3 CDDA sectors
File Size : 12.1M
Bit Rate : 333k
Sample Encoding: MPEG audio (layer I, II or III)
Comments :
Title=Путь просветления
Artist=Нейротоксин
Album=Ego Sum Venenum
Tracknumber=04
Year=2022
Genre=Black Metal



Register


Go to the top of the page
  Insert nick Quick quote
+Quote Post
 
Start new topic
Replies (1 - 1)
post Nov 24 2022, 23:34:39
Post #2

Правь статус, 616
**************
Group: Металариец
Posts: 8,245
Releases: 6541
From: 55°35’N 38°08’E
On Forums: 14 years 4 months
Thanks: 118684 time(s)
Russian Federation


Хорошо. Неплохая тема. Black Metal c элементами Rock.


Thanks:
(1) kefka,
Go to the top of the page
  Insert nick Quick quote
+Quote Post

Reply to this topicStart new topic
1 User(s) are reading this topic (1 Guests and 0 Anonymous Users)
0 Members:

 



- Lo-Fi Version Support form
Copyrights and abuse reports form
Time is now: 5th December 2022 - 15:12:20