Welcome Guest ( Log In | Register )

> Releases Upload / Добавление релизов

Добавить релиз тут / Click here to add release
Рекомендованные обменники / Recommended file shares

 
Reply to this topicStart new topic
> Dune Mear - Crucifix Wound (2022), Raw Black Metal
post Nov 23 2022, 20:46:54
Post #1

Правь статус, 616
**************
Group: Металариец
Posts: 8,224
Releases: 6523
From: 55°35’N 38°08’E
On Forums: 14 years 4 months
Thanks: 118468 time(s)
Russian Federation


(IMG:https://metalarea.org/images/audiocovers/2022_Nov/acov_tid372786_thumb.jpg)

*Artist: Dune Mear
*Album: Crucifix Wound
*Year: 2022
*Genre: Raw Black Metal
*Country: United States (IMG:https://metalarea.org/forum/style_images/flags/United%20States.png)
*Format: mp3@CBR320kbps
*Size: 77MB

Tracklist:
1.Withered Masque 03:08
2.Crucifix Wound 04:17
3.Bow of Utter Despair 01:33
4.Sigil of Animus 03:54
5.Satanic Thunder 03:22
6.The Serac Crypt 05:23
7.His Castle's Shadow 03:28
8.Wretched Mire 05:03
9.Upon the Portcullis Rising... 01:12
******************************
Total playing time: 31:20


(IMG:https://metalarea.org/images/youtube.png)

Technical info
(IMG:https://metalarea.org/images/spectrogram/2022_Nov/5fd762551f1fd9a017d6c4bc2b7d7497.png)
Input File: 01 Withered Masque.mp3
Channels : 2
Sample Rate : 44100
Precision : 16-bit
Duration : 00:03:08.28 = 8303060 samples = 14120.9 CDDA sectors
File Size : 7.67M
Bit Rate : 326k
Sample Encoding: MPEG audio (layer I, II or III)
Comments :
Title=Withered Masque
Artist=Dune Mear
Album=Crucifix Wound
Tracknumber=1
Year=2022
Genre=Black Metal



Register


Go to the top of the page
  Insert nick Quick quote
+Quote Post

Reply to this topicStart new topic
1 User(s) are reading this topic (1 Guests and 0 Anonymous Users)
0 Members:

 



- Lo-Fi Version Support form
Copyrights and abuse reports form
Time is now: 3rd December 2022 - 00:38:06