Welcome Guest ( Log In | Register )

> Releases Upload / Добавление релизов

Добавить релиз тут / Click here to add release
Рекомендованные обменники / Recommended file shares

 
Reply to this topicStart new topic
> Triumphal Vengeance - Atavistic Darkness [ep] (2022), Black Metal
post Nov 23 2022, 22:33:47
Post #1

Правь статус, 616
**************
Group: Металариец
Posts: 8,245
Releases: 6541
From: 55°35’N 38°08’E
On Forums: 14 years 4 months
Thanks: 118698 time(s)
Russian Federation


(IMG:https://metalarea.org/images/audiocovers/2022_Nov/acov_tid372788_thumb.jpg)

*Artist: Triumphal Vengeance
*Album: Atavistic Darkness [ep]
*Year: 2022
*Genre: Black Metal
*Country: Chile (IMG:https://metalarea.org/forum/style_images/flags/Chile.png)
*Format: mp3@CBR320kbps
*Size: 39MB

Tracklist:
1.The Myth 03:51
2.Night Firmament 04:21
3.Over the Abyss 03:51
4.Gravestone 03:14
******************************
Total playing time: 15:17



(IMG:https://metalarea.org/images/youtube.png)

Technical info
(IMG:https://metalarea.org/images/spectrogram/2022_Nov/34d208925b6d616582b25446871788ff.png)
Input File: 01 The Myth.mp3
Channels : 2
Sample Rate : 44100
Precision : 16-bit
Duration : 00:03:51.93 = 10228157 samples = 17394.8 CDDA sectors
File Size : 9.44M
Bit Rate : 326k
Sample Encoding: MPEG audio (layer I, II or III)
Comments :
Title=The Myth
Artist=Triumphal Vengeance
Album=Atavistic Darkness
Tracknumber=1
Year=2022
Genre=Black Metal



Register


Go to the top of the page
  Insert nick Quick quote
+Quote Post

Reply to this topicStart new topic
2 User(s) are reading this topic (2 Guests and 0 Anonymous Users)
0 Members:

 



- Lo-Fi Version Support form
Copyrights and abuse reports form
Time is now: 5th December 2022 - 15:57:56