Welcome Guest ( Log In | Register )

> Releases Upload / Добавление релизов

Добавить релиз тут / Click here to add release
Рекомендованные обменники / Recommended file shares

 
Reply to this topicStart new topic
> Leidensweg - Carn D​û​m [demo] (2022), Raw Black Metal
post Nov 23 2022, 23:38:03
Post #1

Правь статус, 616
**************
Group: Металариец
Posts: 8,245
Releases: 6541
From: 55°35’N 38°08’E
On Forums: 14 years 4 months
Thanks: 118699 time(s)
Russian Federation


(IMG:https://metalarea.org/images/audiocovers/2022_Nov/acov_tid372789_thumb.jpg)

*Artist: Leidensweg
*Album: Carn D​û​m [demo]
*Year: 2022
*Genre: Raw Black Metal
*Country: Austria (IMG:https://metalarea.org/forum/style_images/flags/Austria.png)
*Format: mp3@CBR320kbps
*Size: 93MB

Tracklist:
1.Torment 01:38
2.The Fall Into Darkness 10:39
3.Lacrimae Diaboli 07:56
4.Carn Dûm 07:09
5.World Destroyer 03:01
6.Soul Crusher 07:39
7.In The Caves Of Misery 05:39
******************************
Total playing time: 43:41


(IMG:https://metalarea.org/images/youtube.png)

Extended info
FLAC-Rip


Technical info
(IMG:https://metalarea.org/images/spectrogram/2022_Nov/38f4c31eaa0f7b6b06a58785e9131066.png)
Input File: 02 The Fall Into Darkness.mp3
Channels : 2
Sample Rate : 44100
Precision : 16-bit
Duration : 00:10:39.70 = 28210726 samples = 47977.4 CDDA sectors
File Size : 25.7M
Bit Rate : 322k
Sample Encoding: MPEG audio (layer I, II or III)
Comments :
Title=The Fall Into Darkness
Artist=Leidensweg
Album=Carn Dûm
Tracknumber=2
Year=2022
Genre=Black Metal



Register


Go to the top of the page
  Insert nick Quick quote
+Quote Post

Reply to this topicStart new topic
2 User(s) are reading this topic (2 Guests and 0 Anonymous Users)
0 Members:

 



- Lo-Fi Version Support form
Copyrights and abuse reports form
Time is now: 5th December 2022 - 16:12:04