Welcome Guest ( Log In | Register )

> Releases Upload / Добавление релизов

Добавить релиз тут / Click here to add release
Рекомендованные обменники / Recommended file shares

 
Reply to this topicStart new topic
> Abysm Diabolis - Visions From The Haunted Realm [demo] (2022), Blackened Death Metal
post Nov 24 2022, 03:09:54
Post #1

Правь статус, 616
**************
Group: Металариец
Posts: 8,245
Releases: 6541
From: 55°35’N 38°08’E
On Forums: 14 years 4 months
Thanks: 118698 time(s)
Russian Federation


(IMG:https://metalarea.org/images/audiocovers/2022_Nov/acov_tid372790_thumb.jpg)

*Artist: Abysm Diabolis
*Album: Visions From The Haunted Realm [demo]
*Year: 2022
*Genre: Blackened Death Metal
*Country: Canada (IMG:https://metalarea.org/forum/style_images/flags/Canada.png)
*Format: mp3@CBR320kbps
*Size: 39MB

Tracklist:
1.Hammer Of Retribution 04:39
2.Hexen Tomb 03:54
3.Baptized In Magma 03:08
4.Infernal Invocation 04:14
******************************
Total playing time: 15:55



Technical info
(IMG:https://metalarea.org/images/spectrogram/2022_Nov/f0c4f462e3c7ab446224a78c865fc4ca.png)
Input File: 01 Hammer of Retribution.mp3
Channels : 2
Sample Rate : 44100
Precision : 16-bit
Duration : 00:04:40.00 = 12347956 samples = 20999.9 CDDA sectors
File Size : 11.4M
Bit Rate : 325k
Sample Encoding: MPEG audio (layer I, II or III)
Comments :
Title=Hammer of Retribution
Artist=Abysm Diabolis
Album=Visions From The Haunted Realm
Tracknumber=1
Year=2022
Genre=Death Metal



Register


Thanks:
Go to the top of the page
  Insert nick Quick quote
+Quote Post

Reply to this topicStart new topic
1 User(s) are reading this topic (1 Guests and 0 Anonymous Users)
0 Members:

 



- Lo-Fi Version Support form
Copyrights and abuse reports form
Time is now: 5th December 2022 - 15:57:30