Welcome Guest ( Log In | Register )

> Releases Upload / Добавление релизов

Добавить релиз тут / Click here to add release
Рекомендованные обменники / Recommended file shares

 
Reply to this topicStart new topic
> Cranio Maldito - Maldito [demo] (2022), Death Metal
post Nov 24 2022, 03:24:35
Post #1

Правь статус, ####!111
**************
Group: Металариец
Posts: 4,150
Releases: 2612
On Forums: 12 years 2 weeks
Thanks: 47637 time(s)
Russian Federation


(IMG:https://metalarea.org/images/audiocovers/2022_Nov/acov_tid372791_thumb.jpg)

*Artist: Cranio Maldito
*Album: Maldito [demo]
*Year: 2022
*Genre: Death Metal
*Country: Brazil (IMG:https://metalarea.org/forum/style_images/flags/Brazil.png)
*Format: mp3@CBR320kbps
*Size: 17MB

Tracklist:
1.Obcecado por crueldade 03:54
2.Sinto a morte chamando meu ser 02:20
******************************
Total playing time: 6:14



Technical info
(IMG:https://metalarea.org/images/spectrogram/2022_Nov/2b08ce9cc71e985ea8c95443ebcacd76.png)
Input File: 02 Sinto a morte chamando meu ser.mp3
Channels : 2
Sample Rate : 44100
Precision : 16-bit
Duration : 00:02:20.08 = 6177352 samples = 10505.7 CDDA sectors
File Size : 5.84M
Bit Rate : 333k
Sample Encoding: MPEG audio (layer I, II or III)
Comments :
Title=Sinto a morte chamando meu ser
Artist=Cranio Maldito
Album=Maldito
Tracknumber=2
Year=2022



Register


Go to the top of the page
  Insert nick Quick quote
+Quote Post

Reply to this topicStart new topic
2 User(s) are reading this topic (2 Guests and 0 Anonymous Users)
0 Members:

 



- Lo-Fi Version Support form
Copyrights and abuse reports form
Time is now: 5th December 2022 - 15:34:18