Welcome Guest ( Log In | Register )

> Releases Upload / Добавление релизов

Добавить релиз тут / Click here to add release
Рекомендованные обменники / Recommended file shares

> Opened Paradise - Eclipse (2022), Gothic Metal
post Nov 24 2022, 03:39:15
Post #1

Правь статус, ####!111
**************
Group: Металариец
Posts: 4,151
Releases: 2618
On Forums: 12 years 2 weeks
Thanks: 47657 time(s)
Russian Federation


(IMG:https://metalarea.org/images/audiocovers/2022_Nov/acov_tid372792_thumb.jpg)

*Artist: Opened Paradise
*Album: Eclipse
*Year: 2022
*Genre: Gothic Metal
*Country: Greece (IMG:https://metalarea.org/forum/style_images/flags/Greece.png)
*Format: mp3@CBR320kbps
*Size: 112MB

Tracklist:
1.King Of The Void 05:54
2.Empire Of Heathens 05:30
3.Bound In Oblivion 03:56
4.Le Sang Sacre 07:04
5.Reckoning 04:00
6.Faceless Sun (bonus track) 05:35
7.Spread The Eclipse Of The Sun 05:19
8.Lost Years part I : Sin 04:23
9.Lost Years part II : Path of Pain (to the cosmic traveler) 05:44
******************************
Total playing time: 47:25



Technical info
(IMG:https://metalarea.org/images/spectrogram/2022_Nov/ba4b01fe70f65f3814f416900604e75c.png)
Input File: 03 - Bound In Oblivion .mp3
Channels : 2
Sample Rate : 44100
Precision : 16-bit
Duration : 00:04:01.21 = 10637141 samples = 18090.4 CDDA sectors
File Size : 10.1M
Bit Rate : 336k
Sample Encoding: MPEG audio (layer I, II or III)
Comments :
Title=Bound in Oblivion
Artist=Opened Paradise
Album=Eclipse
Tracknumber=03
Year=2022
Genre=Gothic Metal



Register


Go to the top of the page
  Insert nick Quick quote
+Quote Post
 
Start new topic
Replies (1 - 1)
post Nov 25 2022, 07:58:42
Post #2

Девять Литров
*********
Group: Металариец
Posts: 995
Releases: 49
From: Ивантеевка, Московская область
On Forums: 14 years 11 months
Thanks: 1089 time(s)
Russian Federation


Послушал один раз на Bandcamp. Как минимум - неплохо. Le Sang Sacre очень понравилась. Буду слушать более углубленно. Спасибо.
Go to the top of the page
  Insert nick Quick quote
+Quote Post

Reply to this topicStart new topic
1 User(s) are reading this topic (1 Guests and 0 Anonymous Users)
0 Members:

 



- Lo-Fi Version Support form
Copyrights and abuse reports form
Time is now: 5th December 2022 - 16:25:41