Welcome Guest ( Log In | Register )

> Releases Upload / Добавление релизов

Добавить релиз тут / Click here to add release
Рекомендованные обменники / Recommended file shares

> Grotesquerie - Composted Beyond Recognition (2022), Death Metal/Goregrind
post Nov 24 2022, 03:46:59
Post #1

Правь статус, ####!111
**************
Group: Металариец
Posts: 4,151
Releases: 2612
On Forums: 12 years 2 weeks
Thanks: 47653 time(s)
Russian Federation


(IMG:https://metalarea.org/images/audiocovers/2022_Nov/acov_tid372793_thumb.jpg)

*Artist: Grotesquerie
*Album: Composted Beyond Recognition
*Year: 2022
*Genre: Death Metal/Goregrind
*Country: Switzerland (IMG:https://metalarea.org/forum/style_images/flags/Switzerland.png)
*Format: mp3@CBR320kbps
*Size: 56MB

Tracklist:
1.Bludgeoned in the Greenhouse 01:35
2.Dankest Jay of Horror 00:59
3.Nutrient Instability 01:15
4.Involuntary Urban Detonation 00:52
5.Resinous Viscera 01:48
6.5" Spliff 00:35
7.Rugged Terrain (of Existence) 01:17
8.Composted Beyond Recognition 01:48
9.Chainsmoke Dismemberment 01:18
10.Reek of Illegality 00:11
11.House by the Dispensary 01:26
12.Consumed by Wild Yeasts 01:33
13.Crazed for Bud 01:04
14.Reanimated Dead Sesh 01:55
15.Maimed and Decarboxylated 00:39
16.Glovebox Fermentation 01:21
17.Only Teeth Remain 02:26
******************************
Total playing time: 22:02



Technical info
(IMG:https://metalarea.org/images/spectrogram/2022_Nov/3753efd8cccef36fe65c2ed8d606317a.png)
Input File: 03 Nutrient Instability.mp3
Channels : 2
Sample Rate : 44100
Precision : 16-bit
Duration : 00:01:15.29 = 3320377 samples = 5646.9 CDDA sectors
File Size : 3.19M
Bit Rate : 339k
Sample Encoding: MPEG audio (layer I, II or III)
Comments :
Title=Nutrient Instability
Artist=Grotesquerie
Album=Composted Beyond Recognition
Tracknumber=03
Year=2022



Register


Go to the top of the page
  Insert nick Quick quote
+Quote Post
 
Start new topic
Replies (1 - 1)
post Nov 25 2022, 08:43:37
Post #2

Мегаманьяк
***********
Group: Металариец
Posts: 1,965
Releases: 1
From: APATIN, SERBIA, АПАТИН, СЕРБИЯ
On Forums: 15 years 1 month
Thanks: 5749 time(s)



Flac

Register


Thanks:
(1) AHBAnep,
Go to the top of the page
  Insert nick Quick quote
+Quote Post

Reply to this topicStart new topic
2 User(s) are reading this topic (2 Guests and 0 Anonymous Users)
0 Members:

 



- Lo-Fi Version Support form
Copyrights and abuse reports form
Time is now: 5th December 2022 - 16:03:36