Welcome Guest ( Log In | Register )

> Releases Upload / Добавление релизов

Добавить релиз тут / Click here to add release
Рекомендованные обменники / Recommended file shares

 
Reply to this topicStart new topic
> Twisted Mist - Lacerare (2022), Folk/Pagan Black Metal
post Nov 24 2022, 04:03:31
Post #1

Правь статус, ####!111
**************
Group: Металариец
Posts: 4,147
Releases: 2612
On Forums: 12 years 2 weeks
Thanks: 47633 time(s)
Russian Federation


(IMG:https://metalarea.org/images/audiocovers/2022_Nov/acov_tid372794_thumb.jpg)

*Artist: Twisted Mist
*Album: Lacerare
*Year: 2022
*Genre: Folk/Pagan Black Metal
*Country: France (IMG:https://metalarea.org/forum/style_images/flags/France.png)
*Format: mp3@CBR320kbps
*Size: 97MB

Tracklist:
1.Dawn 02:44
2.Dark Cloud 04:10
3.Lament in the Firmament 05:06
4.The Shrouded 04:52
5.Indutiae 03:04
6.Kyrie Eleison 05:30
7.Nihil Reliquit 06:13
8.Lacerare 06:20
9.Requiem 06:06
******************************
Total playing time: 44:05

(IMG:https://metalarea.org/images/youtube.png)

Technical info
(IMG:https://metalarea.org/images/spectrogram/2022_Nov/462a5f7e7a9339cb38b6d04724c1256a.png)
Input File: 02. Nuée Noire.mp3
Channels : 2
Sample Rate : 44100
Precision : 16-bit
Duration : 00:04:14.32 = 11215336 samples = 19073.7 CDDA sectors
File Size : 10.2M
Bit Rate : 320k
Sample Encoding: MPEG audio (layer I, II or III)
Comments :
Title=Nuée Noire
Artist=Twisted Mist
Album=Lacerare
Tracknumber=2
Year=2022
Genre=Folk Metal, Pagan Black, Death Metal



Register


Go to the top of the page
  Insert nick Quick quote
+Quote Post

Reply to this topicStart new topic
1 User(s) are reading this topic (1 Guests and 0 Anonymous Users)
0 Members:

 



- Lo-Fi Version Support form
Copyrights and abuse reports form
Time is now: 5th December 2022 - 14:28:04