Welcome Guest ( Log In | Register )

> Releases Upload / Добавление релизов

Добавить релиз тут / Click here to add release
Рекомендованные обменники / Recommended file shares

 
Reply to this topicStart new topic
> Torture Squad - Tortura En La Iglesia En Vivo [live] (2022), Thrash/Death Metal (D)
post Nov 24 2022, 04:47:29
Post #1

Правь статус, ####!111
**************
Group: Металариец
Posts: 4,147
Releases: 2612
On Forums: 12 years 2 weeks
Thanks: 47633 time(s)
Russian Federation


(IMG:https://metalarea.org/images/audiocovers/2022_Nov/acov_tid372795_thumb.jpg)

*Artist: Torture Squad
*Album: Tortura En La Iglesia En Vivo [live]
*Year: 2022
*Genre: Thrash/Death Metal
*Country: Brazil (IMG:https://metalarea.org/forum/style_images/flags/Brazil.png)
*Format: mp3@CBR320kbps
*Size: 165MB

Tracklist:
01.Obskure 01:13
02.Torture Till Die 04:04
03.Convulsion 02:21
04.The Unholy Spell 03:52
05.Horror and Torture 06:30
06.Living for the Kill 05:04
07.Generation Dead 05:24
08.No Escape from Hell 05:07
09.Possessed by Horror 05:46
10.Inner Strenght 03:33
11.Return of Evil 06:55
12.Don't Cross My Path 05:56
13.Raise Your Horns 06:54
14.Blood Sacrifice 08:22
15.The Fallen Ones (Bonus Track) 04:56
******************************
Total playing time: 1:15:57

(IMG:https://metalarea.org/images/youtube.png)
(IMG:https://metalarea.org/images/youtube.png)

Technical info
(IMG:https://metalarea.org/images/spectrogram/2022_Nov/1f466af4dcfdb43ada2646e61ece0f10.png)
Input File: 03. Convulsion.mp3
Channels : 2
Sample Rate : 44100
Precision : 16-bit
Duration : 00:02:24.59 = 6376243 samples = 10844 CDDA sectors
File Size : 5.78M
Bit Rate : 320k
Sample Encoding: MPEG audio (layer I, II or III)
Comments :
Title=Convulsion
Artist=Torture Squad
Album=Tortura en la Iglesia en Vivo
Tracknumber=3
Year=2022
Genre=Thrash/Death Metal



Register


Go to the top of the page
  Insert nick Quick quote
+Quote Post

Reply to this topicStart new topic
1 User(s) are reading this topic (1 Guests and 0 Anonymous Users)
0 Members:

 



- Lo-Fi Version Support form
Copyrights and abuse reports form
Time is now: 5th December 2022 - 14:57:01