Welcome Guest ( Log In | Register )

> Releases Upload / Добавление релизов

Добавить релиз тут / Click here to add release
Рекомендованные обменники / Recommended file shares

> Sarnath Eternal - Sarnath Eternal [demo] (2022), Melodic Black Metal
post Nov 24 2022, 04:57:11
Post #1

Правь статус, ####!111
**************
Group: Металариец
Posts: 4,151
Releases: 2618
On Forums: 12 years 2 weeks
Thanks: 47669 time(s)
Russian Federation


(IMG:https://metalarea.org/images/audiocovers/2022_Nov/acov_tid372796_thumb.jpg)

*Artist: Sarnath Eternal
*Album: Sarnath Eternal [demo]
*Year: 2022
*Genre: Melodic Black Metal
*Country: Ukraine (IMG:https://metalarea.org/forum/style_images/flags/Ukraine.png)
*Format: mp3@CBR320kbps
*Size: 44MB

Tracklist:
1.Intro 00:38
2.The great incantation of Yog-Sothoth 05:32
3....and the Ivory Throne will fall... 06:30
4.Plateau of Leng 06:46
******************************
Total playing time: 19:26



Technical info
(IMG:https://metalarea.org/images/spectrogram/2022_Nov/0baa2ccf6f0d39ca9fd1655d73b5aecb.png)
Input File: 02-The Great Incantation of Yog-Sothoth.mp3
Channels : 2
Sample Rate : 44100
Precision : 16-bit
Duration : 00:05:32.77 = 14675201 samples = 24957.8 CDDA sectors
File Size : 13.3M
Bit Rate : 320k
Sample Encoding: MPEG audio (layer I, II or III)
Comments :
Title=The Great Incantation of Yog-Sothoth
Artist=Sarnath Eternal
Album=Sarnath Eternal
Tracknumber=02
Year=2022
Genre=Black Metal



Register


Go to the top of the page
  Insert nick Quick quote
+Quote Post
 
Start new topic
Replies (1 - 1)
post Nov 28 2022, 15:07:24
Post #2
BAN
RO till
Dec 7 2022, 19:26:25



Быстро пролетело - не разобрал.
Go to the top of the page
  Insert nick Quick quote
+Quote Post

Reply to this topicStart new topic
2 User(s) are reading this topic (2 Guests and 0 Anonymous Users)
0 Members:

 



- Lo-Fi Version Support form
Copyrights and abuse reports form
Time is now: 5th December 2022 - 16:44:42