Welcome Guest ( Log In | Register )

> Releases Upload / Добавление релизов

Добавить релиз тут / Click here to add release
Рекомендованные обменники / Recommended file shares

> Svelsurdus - Heathen Chronicles (2022), Pagan Black Metal
post Nov 24 2022, 05:46:21
Post #1

Правь статус, ####!111
**************
Group: Металариец
Posts: 4,147
Releases: 2612
On Forums: 12 years 2 weeks
Thanks: 47633 time(s)
Russian Federation


(IMG:https://metalarea.org/images/audiocovers/2022_Nov/acov_tid372797_thumb.jpg)

*Artist: Svelsurdus
*Album: Heathen Chronicles
*Year: 2022
*Genre: Pagan Black Metal
*Country: Bulgaria (IMG:https://metalarea.org/forum/style_images/flags/Bulgaria.png)
*Format: mp3@CBR320kbps
*Size: 83MB

Tracklist:
1.Chronicle I - The Onglos 02:01
2.Chronicle II - Caliphate's Devastation 07:38
3.Chronicle III - Battle of Pliska 09:12
4.Chronicle IV - Blood Betrayal 07:29
5.Chronicle V - The Last Pagan Uprising 08:51
******************************
Total playing time: 35:11



Technical info
(IMG:https://metalarea.org/images/spectrogram/2022_Nov/3fa903a85905336d5bd4b2255c9b4273.png)
Input File: 02 - Chronicle II (Caliphate\'s Devastation).mp3
Channels : 2
Sample Rate : 44100
Precision : 16-bit
Duration : 00:07:38.00 = 20197800 samples = 34350 CDDA sectors
File Size : 18.8M
Bit Rate : 328k
Sample Encoding: MPEG audio (layer I, II or III)
Comments :
Title=Chronicle II (Caliphate's Devastation)
Artist=Svelsurdus
Album=Heathen Chronicles
Tracknumber=2
Year=2022-10-12
Genre=Metal
Discnumber=1



Register


Go to the top of the page
  Insert nick Quick quote
+Quote Post
 
Start new topic
Replies (1 - 1)
post Nov 28 2022, 15:19:10
Post #2

Common dweller of hell
**************
Group: Металариец
Posts: 4,497
Releases: 12
From: Dnipro
On Forums: 14 years 4 months
Thanks: 1781 time(s)
Ukraine


Ну практически на отлично отыграли. (IMG:style_emoticons/default/20.gif)
FLAC?
Go to the top of the page
  Insert nick Quick quote
+Quote Post

Reply to this topicStart new topic
2 User(s) are reading this topic (2 Guests and 0 Anonymous Users)
0 Members:

 



- Lo-Fi Version Support form
Copyrights and abuse reports form
Time is now: 5th December 2022 - 14:42:27