Welcome Guest ( Log In | Register )

> Releases Upload / Добавление релизов

Добавить релиз тут / Click here to add release
Рекомендованные обменники / Recommended file shares

 
Reply to this topicStart new topic
> Sinister Demise - Eluded By Enlightenment [demo] (2006), Brutal Death Metal
post Nov 24 2022, 06:39:44
Post #1

Девять Литров
*********
Group: Металариец
Posts: 991
Releases: 259
On Forums: 3 years 6 months
Thanks: 4360 time(s)
Russian Federation


(IMG:https://metalarea.org/images/audiocovers/2022_Nov/acov_tid372798_thumb.jpg)

*Artist: Sinister Demise
*Album: Eluded By Enlightenment [demo]
*Year: 2006
*Genre: Brutal Death Metal
*Country: Ireland (IMG:https://metalarea.org/forum/style_images/flags/Ireland.png)
*Format: mp3@CBR320kbps
*Size: 44MB

Tracklist:
1. Lair of Lunacy 03:27
2. Voices Unheard 03:47
3. Subverting 04:28
4. Eluded by Enlightenment 05:33
******************************
Total playing time: 17:15


(IMG:https://metalarea.org/images/youtube.png)



Technical info
(IMG:https://metalarea.org/images/spectrogram/2022_Nov/844e1bc39003f8b389620e388fed8dc4.png)
Input File: 02 Voices Unheard.mp3
Channels : 2
Sample Rate : 44100
Precision : 16-bit
Duration : 00:03:47.23 = 10020623 samples = 17041.9 CDDA sectors
File Size : 9.26M
Bit Rate : 326k
Sample Encoding: MPEG audio (layer I, II or III)
Comments :
Title=Voices Unheard
Artist=Sinister Demise
Album=SINISTER DEMISE - Eluded By Enlightenment (Demo 2006)
Tracknumber=2
Year=2006



Register


Thanks:
Go to the top of the page
  Insert nick Quick quote
+Quote Post

Reply to this topicStart new topic
1 User(s) are reading this topic (1 Guests and 0 Anonymous Users)
0 Members:

 



- Lo-Fi Version Support form
Copyrights and abuse reports form
Time is now: 5th December 2022 - 15:30:05