Welcome Guest ( Log In | Register )

> Releases Upload / Добавление релизов

Добавить релиз тут / Click here to add release
Рекомендованные обменники / Recommended file shares

 
Reply to this topicStart new topic
> Nebulium - Grow [ep] (2020), Progressive Death Metal
post Nov 24 2022, 07:53:03
Post #1

Девять Литров
*********
Group: Металариец
Posts: 991
Releases: 259
On Forums: 3 years 6 months
Thanks: 4360 time(s)
Russian Federation


(IMG:https://metalarea.org/images/audiocovers/2022_Nov/acov_tid372799_thumb.jpg)

*Artist: Nebulium
*Album: Grow [ep]
*Year: 2020
*Genre: Progressive Death Metal
*Country: United States (IMG:https://metalarea.org/forum/style_images/flags/United%20States.png)
*Format: mp3@CBR320kbps
*Size: 56MB

Tracklist:
1. Finite 02:19
2. Grow 03:53
3. Kingdom of Oblivion 02:55
4. Artificial Legacy 01:03
5. Dissensus of Being 05:04
6. Old Ones & Elder Things 05:07
7. Infinite 03:44
******************************
Total playing time: 24:05





Technical info
(IMG:https://metalarea.org/images/spectrogram/2022_Nov/f9b5bc0b801caba6e649c038c63c13be.png)
Input File: Nebulium - Grow - 02 Grow.mp3
Channels : 2
Sample Rate : 44100
Precision : 16-bit
Duration : 00:03:53.78 = 10309786 samples = 17533.6 CDDA sectors
File Size : 9.51M
Bit Rate : 325k
Sample Encoding: MPEG audio (layer I, II or III)
Comments :
Title=Grow
Artist=Nebulium
Album=Grow
Tracknumber=2
Year=2020



Register


Go to the top of the page
  Insert nick Quick quote
+Quote Post

Reply to this topicStart new topic
2 User(s) are reading this topic (2 Guests and 0 Anonymous Users)
0 Members:

 



- Lo-Fi Version Support form
Copyrights and abuse reports form
Time is now: 5th December 2022 - 15:13:04