Welcome Guest ( Log In | Register )

> Releases Upload / Добавление релизов

Добавить релиз тут / Click here to add release
Рекомендованные обменники / Recommended file shares

 
Reply to this topicStart new topic
> Mephistopheles - Hide And Seek (2018), Thrash/Heavy Metal (D)
post Nov 24 2022, 11:03:01
Post #1

Join my religion, or die
**************
Group: Металариец
Posts: 11,223
Releases: 1862
From: Питера
On Forums: 13 years 2 months
Thanks: 24598 time(s)
Russian Federation


(IMG:https://metalarea.org/images/audiocovers/2022_Nov/acov_tid372801_thumb.jpg)

*Artist: Mephistopheles
*Album: Hide And Seek
*Year: 2018
*Genre: Thrash/Heavy Metal
*Country: Japan (IMG:https://metalarea.org/forum/style_images/flags/Japan.png)
*Format: mp3@CBR320kbps
*Size: 71MB

Tracklist:
01. 序列67番Amduscias 03:17
02. Hide and Seek 03:57
03. Play with the Evil 04:38
04. Lurking in the Darkness 05:45
05. Killer in the Home 03:57
06. Human System 04:47
07. Dictator Ship 04:35
******************************
Total playing time: 30:56

(IMG:https://metalarea.org/images/youtube.png)

Technical info
(IMG:https://metalarea.org/images/spectrogram/2022_Nov/655c459e3128ec2c3edd7fc4fd964c59.png)
Input File: 02 Hide and Seek.mp3
Channels : 2
Sample Rate : 44100
Precision : 16-bit
Duration : 00:03:56.92 = 10448172 samples = 17769 CDDA sectors
File Size : 9.60M
Bit Rate : 324k
Sample Encoding: MPEG audio (layer I, II or III)
Comments :
Title=Hide and Seek
Artist=Mephistopheles
Album=2018 Hide and Seek
Tracknumber=02/07
Year=2018
Genre=Thrash Metal



Register


Go to the top of the page
  Insert nick Quick quote
+Quote Post

Reply to this topicStart new topic
2 User(s) are reading this topic (2 Guests and 0 Anonymous Users)
0 Members:

 



- Lo-Fi Version Support form
Copyrights and abuse reports form
Time is now: 5th December 2022 - 16:05:07