Welcome Guest ( Log In | Register )

> Releases Upload / Добавление релизов

Добавить релиз тут / Click here to add release
Рекомендованные обменники / Recommended file shares

 
Reply to this topicStart new topic
> The Last Ten Seconds Of Life - Disquisition Of An Execution [ep] (2022), Deathcore (D6)
post Nov 24 2022, 11:38:14
Post #1

Serial Uploader
Group Icon
Group: V.I.P
Posts: 39,314
Releases: 37449
From: Lithuania
On Forums: 14 years 5 months
Thanks: 469659 time(s)
Lithuania


(IMG:https://metalarea.org/images/audiocovers/2022_Nov/acov_tid372802_thumb.jpg)

*Artist: The Last Ten Seconds Of Life
*Album: Disquisition Of An Execution [ep]
*Year: 2022
*Genre: Deathcore
*Country: United States (IMG:https://metalarea.org/forum/style_images/flags/United%20States.png)
*Format: mp3@CBR320kbps
*Size: 39MB

Tracklist:
01. Dreams of Extermination 4:58
02. Retribution 4:14
03. Liberation 3:44
04. Annihilation Phenomena 3:51
******************************
Total playing time: 16:47

(IMG:https://metalarea.org/images/myspace.png)


(IMG:https://metalarea.org/images/youtube.png)

Technical info
(IMG:https://metalarea.org/images/spectrogram/2022_Nov/12f9910c2890123201d924d230885ad3.png)
Input File: 02 - Retribution.mp3
Channels : 2
Sample Rate : 44100
Precision : 16-bit
Duration : 00:04:14.00 = 11201400 samples = 19050 CDDA sectors
File Size : 10.3M
Bit Rate : 325k
Sample Encoding: MPEG audio (layer I, II or III)
Comments :
Title=Retribution
Artist=The Last Ten Seconds of Life
Album=Disquisition on an Execution
Tracknumber=2
Year=2022
Discnumber=1



Register


Go to the top of the page
  Insert nick Quick quote
+Quote Post

Reply to this topicStart new topic
1 User(s) are reading this topic (1 Guests and 0 Anonymous Users)
0 Members:

 



- Lo-Fi Version Support form
Copyrights and abuse reports form
Time is now: 5th December 2022 - 14:34:15