Welcome Guest ( Log In | Register )

> Releases Upload / Добавление релизов

Добавить релиз тут / Click here to add release
Рекомендованные обменники / Recommended file shares

 
Reply to this topicStart new topic
> Circles - The Stories We Are Afraid Of, Vol. 1 [ep] (2022), Progressive Metal/Djent (D8)
post Nov 24 2022, 11:44:34
Post #1

Serial Uploader
Group Icon
Group: V.I.P
Posts: 39,314
Releases: 37449
From: Lithuania
On Forums: 14 years 5 months
Thanks: 469665 time(s)
Lithuania


(IMG:https://metalarea.org/images/audiocovers/2022_Nov/acov_tid372803_thumb.jpg)

*Artist: Circles
*Album: The Stories We Are Afraid Of, Vol. 1 [ep]
*Year: 2022
*Genre: Progressive Metal/Djent
*Country: Australia (IMG:https://metalarea.org/forum/style_images/flags/Australia.png)
*Format: mp3@CBR320kbps
*Size: 53MB

Tracklist:
01. Wonder 3:40
02. Bliss 3:26
03. Sleepwalking 3:52
04. Echo 3:50
05. Dig 3:32
06. Reckoning 4:41
******************************
Total playing time: 23:01



(IMG:https://metalarea.org/images/youtube.png)

Technical info
(IMG:https://metalarea.org/images/spectrogram/2022_Nov/d28d338174474c2ea831dfc1822a3850.png)
Input File: 02 - Bliss.mp3
Channels : 2
Sample Rate : 44100
Precision : 16-bit
Duration : 00:03:26.00 = 9084600 samples = 15450 CDDA sectors
File Size : 8.33M
Bit Rate : 324k
Sample Encoding: MPEG audio (layer I, II or III)
Comments :
Title=Bliss
Artist=Circles
Album=The Stories We Are Afraid of, Vol. 1
Tracknumber=2
Year=2022
Discnumber=1



Register


Go to the top of the page
  Insert nick Quick quote
+Quote Post

Reply to this topicStart new topic
2 User(s) are reading this topic (2 Guests and 0 Anonymous Users)
0 Members:

 



- Lo-Fi Version Support form
Copyrights and abuse reports form
Time is now: 5th December 2022 - 16:32:26