Welcome Guest ( Log In | Register )

> Releases Upload / Добавление релизов

Добавить релиз тут / Click here to add release
Рекомендованные обменники / Recommended file shares

> Burial Choir - Descension Of Firmament (2022), Funeral Doom Metal
post Nov 24 2022, 12:24:55
Post #1

Serial Uploader
Group Icon
Group: V.I.P
Posts: 39,314
Releases: 37449
From: Lithuania
On Forums: 14 years 5 months
Thanks: 469660 time(s)
Lithuania


(IMG:https://metalarea.org/images/audiocovers/2022_Nov/acov_tid372804_thumb.jpg)

*Artist: Burial Choir
*Album: Descension Of Firmament
*Year: 2022
*Genre: Funeral Doom Metal
*Country: Finland (IMG:https://metalarea.org/forum/style_images/flags/Finland.png)
*Format: mp3@CBR320kbps
*Size: 100MB

Tracklist:
1. Canto III.I 15:55
2. Canto III.II 15:54
3. Canto III.III 11:50
******************************
Total playing time: 43:39



(IMG:https://metalarea.org/images/youtube.png)

Technical info
(IMG:https://metalarea.org/images/spectrogram/2022_Nov/2a8c702a1e1ecceeeda99f770ad0aa17.png)
Input File: 02. Canto III.II.mp3
Channels : 2
Sample Rate : 44100
Precision : 16-bit
Duration : 00:15:54.52 = 42094244 samples = 71588.9 CDDA sectors
File Size : 38.3M
Bit Rate : 321k
Sample Encoding: MPEG audio (layer I, II or III)
Comments :
Title=Canto III.II
Artist=Burial Choir
Album=Descension Of Firmament
Tracknumber=2
Year=2022
Genre=Funeral Doom Metal



Register


Go to the top of the page
  Insert nick Quick quote
+Quote Post
 
Start new topic
Replies (1 - 6)
post Nov 24 2022, 17:29:54
Post #2

Шесть Литров
******
Group: Металариец
Posts: 548
Releases: 0
On Forums: 4 years 10 months
Thanks: 178 time(s)
Belarus


Невероятная муть, да еще и с перекосом звуковых каналов.


Thanks:
(1) Mencae77,
Go to the top of the page
  Insert nick Quick quote
+Quote Post
post Nov 24 2022, 17:41:50
Post #3

Group: Подсевший
Posts: 41
Releases: 0
On Forums: 3 years 5 months
Thanks: 13 time(s)
Unknown


Достойная работа, в духе дебютника, но помелодичней. Единственно, что меня здесь здесь раздражает это гитара, которая пилит бесконечно однообразное тремолово в блековом ключе на протяжении почти всего альбома. А так качественный мрак: минималистичный скандинавский фьюнерал без соплей, каких-то сложных аранжировок и смешения стиля. Такое пишут либо фины, либо шведы. У рабочего барабана здесь звук интересный: глубокий и сухой и в то же время с отскоком, кто играет знаем о чем я. На активной акустике звучит умопомрачительно.


Thanks:
Go to the top of the page
  Insert nick Quick quote
+Quote Post
post Nov 25 2022, 11:56:38
Post #4

Пять Литров
*****
Group: Металариец
Posts: 413
Releases: 20
From: Saint-Petersburg, Купчино
On Forums: 17 years 3 weeks
Thanks: 580 time(s)
Russian Federation


Тут играет, правда непонятно на чём, человек из Октоба Фоллз. А у него всегда всё хорошо и ровно. Этот проект не исключение.
Go to the top of the page
  Insert nick Quick quote
+Quote Post
post Nov 25 2022, 12:20:56
Post #5

Дежурный по межполовым вопросам
**************
Group: Металариец
Posts: 3,769
Releases: 3
From: Yaroslavl
On Forums: 6 years 2 months
Thanks: 2482 time(s)
Northern Mariana Islands


QUOTE(Satanspell @ Nov 24 2022, 21:41:50) *
У рабочего барабана здесь звук интересный: с отскоком
Не понял о чем именно в контексте звучания идет речь (IMG:style_emoticons/default/fear.gif)
Go to the top of the page
  Insert nick Quick quote
+Quote Post
post Nov 25 2022, 12:36:50
Post #6

Дежурный по межполовым вопросам
**************
Group: Металариец
Posts: 3,769
Releases: 3
From: Yaroslavl
On Forums: 6 years 2 months
Thanks: 2482 time(s)
Northern Mariana Islands


Пиздaтeйший альбом!
Однообразный мелодически, тревожная атмосфера, очень загружающий,
как будто на repeat один и тот же фрагмент на протяжении 15 минут.
Сводит скулы, пульсирует в висках от напряжения стиснутых зубов, ибо это невыносимо терпеть.
Мощная просто шикарная, фьюнеральщина, как оно и должно быть.
Go to the top of the page
  Insert nick Quick quote
+Quote Post
post Nov 25 2022, 14:05:16
Post #7

NOUMENA
**************
Group: Металариец
Posts: 7,629
Releases: 12
On Forums: 13 years 3 weeks
Thanks: 3659 time(s)
Unknown


Прошлогодний был прикольный.
Go to the top of the page
  Insert nick Quick quote
+Quote Post

Reply to this topicStart new topic
1 User(s) are reading this topic (1 Guests and 0 Anonymous Users)
0 Members:

 



- Lo-Fi Version Support form
Copyrights and abuse reports form
Time is now: 5th December 2022 - 15:10:04