Welcome Guest ( Log In | Register )

> Releases Upload / Добавление релизов

Добавить релиз тут / Click here to add release
Рекомендованные обменники / Recommended file shares

 
Reply to this topicStart new topic
> Beneath An Obsidian Sky - Noctem [ep] (2022), Blackened Deathcore
post Nov 24 2022, 12:43:15
Post #1

Serial Uploader
Group Icon
Group: V.I.P
Posts: 39,314
Releases: 37449
From: Lithuania
On Forums: 14 years 5 months
Thanks: 469660 time(s)
Lithuania


(IMG:https://metalarea.org/images/audiocovers/2022_Nov/acov_tid372806_thumb.jpg)

*Artist: Beneath An Obsidian Sky
*Album: Noctem [ep]
*Year: 2022
*Genre: Blackened Deathcore
*Country: France (IMG:https://metalarea.org/forum/style_images/flags/France.png)
*Format: mp3@CBR320kbps
*Size: 51MB

Tracklist:
01. Noctem 4:58
02. Orpheus (feat. Jordy Besse & Exocrine) 6:14
03. Mother Of Sorrow (feat. Dan Tucker & Crown Magnetar) 5:04
04. Sic Mundus Creatus Est (feat. Lucas Bishop & Downfall Of Mankind) 5:26
******************************
Total playing time: 21:42


(IMG:https://metalarea.org/images/youtube.png)

Technical info
(IMG:https://metalarea.org/images/spectrogram/2022_Nov/c3b0db0eaf5c9db6260937d43b1e003d.png)
Input File: 02 - Orpheus (feat. Jordy Besse & Exocrine).mp3
Channels : 2
Sample Rate : 44100
Precision : 16-bit
Duration : 00:06:14.62 = 16520698 samples = 28096.4 CDDA sectors
File Size : 15.3M
Bit Rate : 326k
Sample Encoding: MPEG audio (layer I, II or III)
Comments :
Title=Orpheus (feat. Jordy Besse & Exocrine)
Artist=Beneath an Obsidian Sky
Album=Noctem
Tracknumber=2/4
Year=2022
Discnumber=1/1



Register


Thanks:
Go to the top of the page
  Insert nick Quick quote
+Quote Post

Reply to this topicStart new topic
1 User(s) are reading this topic (1 Guests and 0 Anonymous Users)
0 Members:

 



- Lo-Fi Version Support form
Copyrights and abuse reports form
Time is now: 5th December 2022 - 15:32:58