Welcome Guest ( Log In | Register )

> Releases Upload / Добавление релизов

Добавить релиз тут / Click here to add release
Рекомендованные обменники / Recommended file shares

 
Reply to this topicStart new topic
> Merciless - Live In Santiago [live] (2022), Death/Thrash Metal (D)
post Nov 24 2022, 12:45:13
Post #1

Join my religion, or die
**************
Group: Металариец
Posts: 11,223
Releases: 1862
From: Питера
On Forums: 13 years 2 months
Thanks: 24598 time(s)
Russian Federation


(IMG:https://metalarea.org/images/audiocovers/2022_Nov/acov_tid372807_thumb.jpg)

*Artist: Merciless
*Album: Live In Santiago [live]
*Year: 2022
*Genre: Death/Thrash Metal
*Country: Sweden (IMG:https://metalarea.org/forum/style_images/flags/Sweden.png)
*Format: mp3@CBR320kbps
*Size: 97MB

Tracklist:
01. Denied Birth
02. The Awakening
03. The Land I Used to Walk
04. Realm of the Dark
05. Feebleminded
06. Dying World
07. Unbound
08. Souls of the Dead
09. Pure Hate
******************************
Total playing time: 42:06

Preview 1

Technical info
(IMG:https://metalarea.org/images/spectrogram/2022_Nov/98153eccc01d87fca916ec6aea6e462b.png)
Input File: 02 The Awakening.mp3
Channels : 2
Sample Rate : 44100
Precision : 16-bit
Duration : 00:04:54.45 = 12985201 samples = 22083.7 CDDA sectors
File Size : 11.9M
Bit Rate : 323k
Sample Encoding: MPEG audio (layer I, II or III)
Comments :
Title=The Awakening
Artist=Merciless
Album=2022 Live in Santiago
Tracknumber=02/09
Year=2022
Genre=Thrash Metal



Register


Go to the top of the page
  Insert nick Quick quote
+Quote Post

Reply to this topicStart new topic
2 User(s) are reading this topic (2 Guests and 0 Anonymous Users)
0 Members:

 



- Lo-Fi Version Support form
Copyrights and abuse reports form
Time is now: 5th December 2022 - 15:13:49