Welcome Guest ( Log In | Register )

> Releases Upload / Добавление релизов

Добавить релиз тут / Click here to add release
Рекомендованные обменники / Recommended file shares

 
Reply to this topicStart new topic
> Sxtxwxkxaxrx - Demo 1 [demo] (2019), Goregrind
post Nov 24 2022, 13:19:54
Post #1

Serial Uploader
Group Icon
Group: V.I.P
Posts: 39,314
Releases: 37449
From: Lithuania
On Forums: 14 years 5 months
Thanks: 469459 time(s)
Lithuania


(IMG:https://metalarea.org/images/audiocovers/2022_Nov/acov_tid372808_thumb.jpg)

*Artist: Sxtxwxkxaxrx
*Album: Demo 1 [demo]
*Year: 2019
*Genre: Goregrind
*Country: United States (IMG:https://metalarea.org/forum/style_images/flags/United%20States.png)
*Format: mp3@CBR320kbps
*Size: 9MB

Tracklist:
1. Message To All Rappers 00:05
2. Ghetto Prostitution 00:04
3. Drug Induced Retards 00:04
4. Lean Laced With Cyanide 00:13
5. Hood Rich And No Brains 00:06
6. Entitled to a Bullet 00:17
7. Shit Breath from Eating Ass 00:02
8. Glorifying Urban Stupidity 00:22
9. Making Beats For Plebs With No Real Talent 01:48
******************************
Total playing time: 3:01



Technical info
(IMG:https://metalarea.org/images/spectrogram/2022_Nov/29cc84c73e310b20d067f1857d4cd0b5.png)
Input File: 02. Ghetto Prostitution.mp3
Channels : 2
Sample Rate : 44100
Precision : 16-bit
Duration : 00:00:04.36 = 192364 samples = 327.15 CDDA sectors
File Size : 395k
Bit Rate : 725k
Sample Encoding: MPEG audio (layer I, II or III)
Comments :
Title=Ghetto Prostitution
Artist=SxTxWxKxAxRx
Album=Demo 1
Tracknumber=2
Year=2019



Register


Thanks:
Go to the top of the page
  Insert nick Quick quote
+Quote Post

Reply to this topicStart new topic
1 User(s) are reading this topic (1 Guests and 0 Anonymous Users)
0 Members:

 



- Lo-Fi Version Support form
Copyrights and abuse reports form
Time is now: 3rd December 2022 - 00:34:24