Welcome Guest ( Log In | Register )

> Releases Upload / Добавление релизов

Добавить релиз тут / Click here to add release
Рекомендованные обменники / Recommended file shares

> In The Woods... - Diversum (2022), Avant-Garde/Progressive Metal (D)
post Nov 24 2022, 13:22:40
Post #1

 
Group Icon
Group: V.I.P
Posts: 2,069
Releases: 179
On Forums: 16 years 2 months
Thanks: 19201 time(s)
Unknown


(IMG:https://metalarea.org/images/audiocovers/2022_Nov/acov_tid372809_thumb.jpg)

*Artist: In The Woods...
*Album: Diversum
*Year: 2022
*Genre: Avant-Garde/Progressive Metal
*Country: Norway (IMG:https://metalarea.org/forum/style_images/flags/Norway.png)
*Format: mp3@CBR320kbps
*Size: 118MB

Tracklist:
1. The Coward's Way 06:12
2. Moments 04:23
3. We Sinful Converge 06:08
4. The Malevolent God 07:28
5. A Wonderful Crisis 07:35
6. Humanity 05:21
7. Master of None 05:47
8. Your Dark 06:41
******************************
Total playing time: 49:35



Extended info
Soulseller Records, November 25th


Technical info
(IMG:https://metalarea.org/images/spectrogram/2022_Nov/4401d06031c6547fd8a8de45bc31960f.png)
Input File: 02 - Moments.mp3
Channels : 2
Sample Rate : 48000
Precision : 16-bit
Duration : 00:04:23.55 = 12650256 samples ~ 19766 CDDA sectors
File Size : 11.1M
Bit Rate : 336k
Sample Encoding: MPEG audio (layer I, II or III)
Comments :
Title=Moments
Artist=In The Woods...
Album=Diversum
Tracknumber=2/8
Year=2022
Genre=Metal
Discnumber=1/1



Register

Register


Go to the top of the page
  Insert nick Quick quote
+Quote Post
2 Pages V  < 1 2  
Start new topic
Replies (30 - 30)
post Yesterday, 20:44:37
Post #31

Шесть Литров
******
Group: Металариец
Posts: 529
Releases: 7
From: минск сити
On Forums: 13 years 5 months
Thanks: 673 time(s)
Belarus


мне ютуб в рекомендациях даже выдал (IMG:style_emoticons/default/smile1.gif)
Go to the top of the page
  Insert nick Quick quote
+Quote Post

2 Pages V  < 1 2
Reply to this topicStart new topic
2 User(s) are reading this topic (2 Guests and 0 Anonymous Users)
0 Members:

 



- Lo-Fi Version Support form
Copyrights and abuse reports form
Time is now: 5th December 2022 - 15:38:50