Welcome Guest ( Log In | Register )

> Releases Upload / Добавление релизов

Добавить релиз тут / Click here to add release
Рекомендованные обменники / Recommended file shares

 
Reply to this topicStart new topic
> Old Grave - Alive Again (2022), Death Metal
post Nov 24 2022, 13:26:50
Post #1

Serial Uploader
Group Icon
Group: V.I.P
Posts: 39,314
Releases: 37449
From: Lithuania
On Forums: 14 years 5 months
Thanks: 469659 time(s)
Lithuania


(IMG:https://metalarea.org/images/audiocovers/2022_Nov/acov_tid372810_thumb.jpg)

*Artist: Old Grave
*Album: Alive Again
*Year: 2022
*Genre: Death Metal
*Country: Russian Federation (IMG:https://metalarea.org/forum/style_images/flags/Russian%20Federation.png)
*Format: mp3@CBR320kbps
*Size: 109MB

Tracklist:
1. Winter Curse 04:35
2. 666 Kills 04:36
3. Silent Collection 04:53
4. The Unknown Grave 05:03
5. Alive Again 04:20
6. Voice out of the Walls 04:35
7. Asylum of the Hanged 04:42
8. Goat Skull 04:18
9. Deadly Gulp 05:28
10. Under the Ruins 04:37
******************************
Total playing time: 47:07


(IMG:https://metalarea.org/images/youtube.png)

Technical info
(IMG:https://metalarea.org/images/spectrogram/2022_Nov/d7ca8080b792bce09e0b553993a0a2a8.png)
Input File: 02. 666 Kills.mp3
Channels : 2
Sample Rate : 44100
Precision : 16-bit
Duration : 00:04:36.05 = 12173849 samples = 20703.8 CDDA sectors
File Size : 11.2M
Bit Rate : 326k
Sample Encoding: MPEG audio (layer I, II or III)
Comments :
Title=666 Kills
Artist=Old Grave
Album=Alive Again
Tracknumber=2
Year=2022



Register


Go to the top of the page
  Insert nick Quick quote
+Quote Post

Reply to this topicStart new topic
2 User(s) are reading this topic (2 Guests and 0 Anonymous Users)
0 Members:

 



- Lo-Fi Version Support form
Copyrights and abuse reports form
Time is now: 5th December 2022 - 14:54:49