Welcome Guest ( Log In | Register )

> Releases Upload / Добавление релизов

Добавить релиз тут / Click here to add release
Рекомендованные обменники / Recommended file shares

> Leather - We Are The Chosen (2022), Heavy Metal
post Nov 24 2022, 13:33:07
Post #1

Serial Uploader
Group Icon
Group: V.I.P
Posts: 39,314
Releases: 37449
From: Lithuania
On Forums: 14 years 5 months
Thanks: 469660 time(s)
Lithuania


(IMG:https://metalarea.org/images/audiocovers/2022_Nov/acov_tid372811_thumb.jpg)

*Artist: Leather
*Album: We Are The Chosen
*Year: 2022
*Genre: Heavy Metal
*Country: United States (IMG:https://metalarea.org/forum/style_images/flags/United%20States.png)
*Format: mp3@CBR320kbps
*Size: 115MB

Tracklist:
1. We Take Back Control 04:49
2. Always Been Evil 04:06
3. Shadows 04:08
4. Off with Your Head 05:17
5. We Are the Chosen 05:27
6. Tyrants 04:29
7. Hallowed Ground 06:56
8. Dark Days 03:41
9. Who Rules the World 05:09
10. The Glory in the End 03:26
******************************
Total playing time: 47:28

(IMG:https://metalarea.org/images/youtube.png)

Technical info
(IMG:https://metalarea.org/images/spectrogram/2022_Nov/4089297eab90e20e443925f61baa654f.png)
Input File: 02 Always Been Evil.mp3
Channels : 2
Sample Rate : 44100
Precision : 16-bit
Duration : 00:04:06.22 = 10858170 samples = 18466.3 CDDA sectors
File Size : 10.6M
Bit Rate : 345k
Sample Encoding: MPEG audio (layer I, II or III)
Comments :
Title=Always Been Evil
Artist=Leather
Album=We Are the Chosen
Tracknumber=2/10/10
Year=2022
Genre=Metal
Discnumber=1/1/1



Register


Go to the top of the page
  Insert nick Quick quote
+Quote Post
 
Start new topic
Replies (1 - 2)
post Nov 24 2022, 17:39:43
Post #2

Group: Подсевший
Posts: 10
Releases: 0
From: Москва
On Forums: 1 year 5 months
Thanks: 1 time(s)
Russian Federation


Добротный хэви. Кэтрин Леоне что у Честейна ещё с 80-х, что сейчас уровень держит, голос только чуть глуше стал.
Go to the top of the page
  Insert nick Quick quote
+Quote Post
post Nov 24 2022, 22:58:24
Post #3

Совки, гулаги, дефициты
***********
Group: Металариец
Posts: 1,803
Releases: 0
From: Беларусь, Минск
On Forums: 15 years 5 months
Thanks: 907 time(s)
Belarus


Отличный хэви, да.
Go to the top of the page
  Insert nick Quick quote
+Quote Post

Reply to this topicStart new topic
1 User(s) are reading this topic (1 Guests and 0 Anonymous Users)
0 Members:

 



- Lo-Fi Version Support form
Copyrights and abuse reports form
Time is now: 5th December 2022 - 15:38:13