Welcome Guest ( Log In | Register )

> Releases Upload / Добавление релизов

Добавить релиз тут / Click here to add release
Рекомендованные обменники / Recommended file shares

 
Reply to this topicStart new topic
> Sxtxwxkxaxrx - Ghetto Hookers [ep] (2021), Goregrind
post Nov 24 2022, 13:43:23
Post #1

Serial Uploader
Group Icon
Group: V.I.P
Posts: 39,314
Releases: 37449
From: Lithuania
On Forums: 14 years 5 months
Thanks: 469660 time(s)
Lithuania


(IMG:https://metalarea.org/images/audiocovers/2022_Nov/acov_tid372812_thumb.jpg)

*Artist: Sxtxwxkxaxrx
*Album: Ghetto Hookers [ep]
*Year: 2021
*Genre: Goregrind
*Country: United States (IMG:https://metalarea.org/forum/style_images/flags/United%20States.png)
*Format: mp3@CBR320kbps
*Size: 20MB

Tracklist:
1. Fried Chicken And Prune Shits 01:03
2. Eating Dirty Ghetto Ass 01:05
3. I Will Rape You 00:07
4. Slave Girl Bondage 00:22
5. Give That Ho A Wedgie 01:02
6. Rimjob From A Black Prostitute 00:08
7. Self Inflicted Urban Genocide 00:27
8. Ghetto Abortion 01:23
9. Dead Junkie Hookers 00:57
10. Rappers Have No Talent And Should Kill Themselves 01:25
******************************
Total playing time: 7:59



Technical info
(IMG:https://metalarea.org/images/spectrogram/2022_Nov/8e26eb55a9275a1065cf241b6e582bb7.png)
Input File: 02. Eating Dirty Ghetto Ass.mp3
Channels : 2
Sample Rate : 44100
Precision : 16-bit
Duration : 00:01:05.18 = 2874394 samples = 4888.43 CDDA sectors
File Size : 2.78M
Bit Rate : 342k
Sample Encoding: MPEG audio (layer I, II or III)
Comments :
Title=Eating Dirty Ghetto Ass
Artist=SxTxWxKxAxRx
Album=Ghetto Hookers
Tracknumber=2
Year=2021



Register


Thanks:
Go to the top of the page
  Insert nick Quick quote
+Quote Post

Reply to this topicStart new topic
1 User(s) are reading this topic (1 Guests and 0 Anonymous Users)
0 Members:

 



- Lo-Fi Version Support form
Copyrights and abuse reports form
Time is now: 5th December 2022 - 15:53:06