Welcome Guest ( Log In | Register )

> Releases Upload / Добавление релизов

Добавить релиз тут / Click here to add release
Рекомендованные обменники / Recommended file shares

 
Reply to this topicStart new topic
> Judicator - The Majesty Of Decay (2022), Power Metal (D7)
post Nov 24 2022, 13:52:50
Post #1

Serial Uploader
Group Icon
Group: V.I.P
Posts: 39,314
Releases: 37449
From: Lithuania
On Forums: 14 years 5 months
Thanks: 469660 time(s)
Lithuania


(IMG:https://metalarea.org/images/audiocovers/2022_Nov/acov_tid372813_thumb.jpg)

*Artist: Judicator
*Album: The Majesty Of Decay
*Year: 2022
*Genre: Power Metal
*Country: United States (IMG:https://metalarea.org/forum/style_images/flags/United%20States.png)
*Format: mp3@CBR320kbps
*Size: 140MB

Tracklist:
1. Euphoric Parasitism 05:33
2. The Majesty of Decay 05:10
3. From the Belly of the Whale 06:29
4. Daughter of Swords 05:35
5. Ursa Minor 04:57
6. Ursa Major 05:39
7. The High Priestess 05:26
8. The Black Elk 04:53
9. Judgment 07:36
10. Metamorphosis 09:38
******************************
Total playing time: 1:00:56


Preview 2

(IMG:https://metalarea.org/images/youtube.png)

Technical info
(IMG:https://metalarea.org/images/spectrogram/2022_Nov/662356564c4f06e9e9b08aa6e4503b37.png)
Input File: 03 From the Belly of the Whale.mp3
Channels : 2
Sample Rate : 44100
Precision : 16-bit
Duration : 00:06:29.46 = 17174966 samples = 29209.1 CDDA sectors
File Size : 15.9M
Bit Rate : 327k
Sample Encoding: MPEG audio (layer I, II or III)
Comments :
Title=From the Belly of the Whale
Artist=Judicator
Album=The Majesty of Decay
Tracknumber=3/10/10
Year=2022
Genre=Metal
Discnumber=1/1/1



Register


Go to the top of the page
  Insert nick Quick quote
+Quote Post

Reply to this topicStart new topic
1 User(s) are reading this topic (1 Guests and 0 Anonymous Users)
0 Members:

 



- Lo-Fi Version Support form
Copyrights and abuse reports form
Time is now: 5th December 2022 - 16:08:17