Welcome Guest ( Log In | Register )

> Releases Upload / Добавление релизов

Добавить релиз тут / Click here to add release
Рекомендованные обменники / Recommended file shares

 
Reply to this topicStart new topic
> Exesa - Dom Gasnacego Slonca (2022), Black Metal
post Nov 24 2022, 13:59:40
Post #1

Правь статус, ####!111
**************
Group: Металариец
Posts: 4,150
Releases: 2612
On Forums: 12 years 2 weeks
Thanks: 47645 time(s)
Russian Federation


(IMG:https://metalarea.org/images/audiocovers/2022_Nov/acov_tid372814_thumb.jpg)

*Artist: Exesa
*Album: Dom Gasnacego Slonca
*Year: 2022
*Genre: Black Metal
*Country: Poland (IMG:https://metalarea.org/forum/style_images/flags/Poland.png)
*Format: mp3@CBR320kbps
*Size: 75MB

Tracklist:
1.Pętla niechybnego upadku 05:45
2.Płomienie I 06:24
3.Psalm 04:04
4.Sagitarrius A 04:33
5.Płomienie II 07:02
6.Pośród ścierwa 05:08
******************************
Total playing time: 32:56



Technical info
(IMG:https://metalarea.org/images/spectrogram/2022_Nov/4a4abba4b14f4f61529ed54b8c50ca5d.png)
Input File: 03-Psalm.mp3
Channels : 2
Sample Rate : 44100
Precision : 16-bit
Duration : 00:04:04.50 = 10782274 samples = 18337.2 CDDA sectors
File Size : 9.78M
Bit Rate : 320k
Sample Encoding: MPEG audio (layer I, II or III)
Comments :
Title=Psalm
Artist=Exesa
Album=Dom Gasnacego Slonca
Tracknumber=03
Year=2022
Genre=Black Metal



Register


Go to the top of the page
  Insert nick Quick quote
+Quote Post

Reply to this topicStart new topic
2 User(s) are reading this topic (2 Guests and 0 Anonymous Users)
0 Members:

 



- Lo-Fi Version Support form
Copyrights and abuse reports form
Time is now: 5th December 2022 - 15:44:34