Welcome Guest ( Log In | Register )

> Releases Upload / Добавление релизов

Добавить релиз тут / Click here to add release
Рекомендованные обменники / Recommended file shares

> Sword - III (2022), Heavy Metal (D6)
post Nov 24 2022, 14:02:00
Post #1

Serial Uploader
Group Icon
Group: V.I.P
Posts: 39,314
Releases: 37449
From: Lithuania
On Forums: 14 years 5 months
Thanks: 469660 time(s)
Lithuania


(IMG:https://metalarea.org/images/audiocovers/2022_Nov/acov_tid372816_thumb.jpg)

*Artist: Sword
*Album: III
*Year: 2022
*Genre: Heavy Metal
*Country: Canada (IMG:https://metalarea.org/forum/style_images/flags/Canada.png)
*Format: mp3@CBR320kbps
*Size: 89MB

Tracklist:
1. Bad Blood 05:35
2. (I Am) In Kommand 04:07
3. Dirty Pig 05:28
4. Surfacing 01:30
5. Unleashing Hell 03:56
6. Spread the Pain 04:59
7. Took My Chances 05:07
8. Not Me, No Way 03:56
******************************
Total playing time: 34:38


(IMG:https://metalarea.org/images/youtube.png)

Technical info
(IMG:https://metalarea.org/images/spectrogram/2022_Nov/5973ab743a8d3e395fda0e1093920194.png)
Input File: 02 (I Am) In Kommand.mp3
Channels : 2
Sample Rate : 44100
Precision : 16-bit
Duration : 00:04:07.60 = 10919248 samples = 18570.1 CDDA sectors
File Size : 11.3M
Bit Rate : 364k
Sample Encoding: MPEG audio (layer I, II or III)
Comments :
Title=(I Am) In Kommand
Artist=Sword
Album=III
Tracknumber=2/8/8
Year=2022
Genre=Metal
Discnumber=1/1/1



Register


Go to the top of the page
  Insert nick Quick quote
+Quote Post
 
Start new topic
Replies (1 - 2)
post Nov 29 2022, 19:46:08
Post #2

MDM-Thrash Metal
**************
Group: Металариец
Posts: 11,482
Releases: 1602
From: Одесса
On Forums: 15 years 3 months
Thanks: 37794 time(s)
Ukraine


Очень приличного уровня олд скульный хеви (Кам Бэк команды, после 34 летнего перерыва).


Thanks:
(1) Rhoads,
Go to the top of the page
  Insert nick Quick quote
+Quote Post
post Nov 29 2022, 20:12:17
Post #3

Два Литра
**
Group: Завсегдатай
Posts: 112
Releases: 0
On Forums: 2 years 2 months
Thanks: 11 time(s)
Czech Republic


Lossless please?
Go to the top of the page
  Insert nick Quick quote
+Quote Post

Reply to this topicStart new topic
2 User(s) are reading this topic (2 Guests and 0 Anonymous Users)
0 Members:

 



- Lo-Fi Version Support form
Copyrights and abuse reports form
Time is now: 5th December 2022 - 16:14:26