Welcome Guest ( Log In | Register )

> Releases Upload / Добавление релизов

Добавить релиз тут / Click here to add release
Рекомендованные обменники / Recommended file shares

 
Reply to this topicStart new topic
> Face Fucking Frenzy - Fucked And Chopped [ep] (2020), Goregrind
post Nov 24 2022, 14:09:35
Post #1

Serial Uploader
Group Icon
Group: V.I.P
Posts: 39,314
Releases: 37449
From: Lithuania
On Forums: 14 years 5 months
Thanks: 469661 time(s)
Lithuania


(IMG:https://metalarea.org/images/audiocovers/2022_Nov/acov_tid372817_thumb.jpg)

*Artist: Face Fucking Frenzy
*Album: Fucked And Chopped [ep]
*Year: 2020
*Genre: Goregrind
*Country: United States (IMG:https://metalarea.org/forum/style_images/flags/United%20States.png)
*Format: mp3@CBR320kbps
*Size: 9MB

Tracklist:
1. Drill Bit Skull Fuck 00:54
2. Moldy Puke Enema 00:32
3. Mr. Z Cheated With Me 00:37
4. Shit Plugged Esophagus 01:37
******************************
Total playing time: 3:40



Technical info
(IMG:https://metalarea.org/images/spectrogram/2022_Nov/79520a172ae1063dda06a9b3f5080670.png)
Input File: 02. Moldy Puke Enema.mp3
Channels : 2
Sample Rate : 44100
Precision : 16-bit
Duration : 00:00:32.65 = 1440041 samples = 2449.05 CDDA sectors
File Size : 1.42M
Bit Rate : 347k
Sample Encoding: MPEG audio (layer I, II or III)
Comments :
Title=Moldy Puke Enema
Artist=Face Fucking Frenzy
Album=Fucked and Chopped EP
Tracknumber=2
Year=2020



Register


Thanks:
Go to the top of the page
  Insert nick Quick quote
+Quote Post

Reply to this topicStart new topic
2 User(s) are reading this topic (2 Guests and 0 Anonymous Users)
0 Members:

 



- Lo-Fi Version Support form
Copyrights and abuse reports form
Time is now: 5th December 2022 - 16:27:33