Welcome Guest ( Log In | Register )

> Releases Upload / Добавление релизов

Добавить релиз тут / Click here to add release
Рекомендованные обменники / Recommended file shares

 
Reply to this topicStart new topic
> Mourn The Light - Stare Into The Face Of Death [ep] (2022), Heavy/Doom Metal
post Nov 24 2022, 14:17:07
Post #1

Правь статус, ####!111
**************
Group: Металариец
Posts: 4,117
Releases: 2584
On Forums: 12 years 2 weeks
Thanks: 47052 time(s)
Russian Federation


(IMG:https://metalarea.org/images/audiocovers/2022_Nov/acov_tid372818_thumb.jpg)

*Artist: Mourn The Light
*Album: Stare Into The Face Of Death [ep]
*Year: 2022
*Genre: Heavy/Doom Metal
*Country: United States (IMG:https://metalarea.org/forum/style_images/flags/United%20States.png)
*Format: mp3@CBR320kbps
*Size: 64MB

Tracklist:
01.The Hunt 06:29
02.Heavy Metal Destiny 06:34
03.It All Comes Down 06:29
04.Face of Death 07:18
******************************
Total playing time: 26:50



Technical info
(IMG:https://metalarea.org/images/spectrogram/2022_Nov/2609557a24a89828eb711c2f27bd4dce.png)
Input File: 02 - Heavy Metal Destiny.mp3
Channels : 2
Sample Rate : 44100
Precision : 16-bit
Duration : 00:06:34.06 = 17377870 samples = 29554.2 CDDA sectors
File Size : 16.3M
Bit Rate : 332k
Sample Encoding: MPEG audio (layer I, II or III)
Comments :
Title=Heavy Metal Destiny
Artist=Mourn the Light
Album=Stare Into the Face of Death
Tracknumber=2/4
Year=2022
Discnumber=1/1



Register


Go to the top of the page
  Insert nick Quick quote
+Quote Post

Reply to this topicStart new topic
2 User(s) are reading this topic (2 Guests and 0 Anonymous Users)
0 Members:

 



- Lo-Fi Version Support form
Copyrights and abuse reports form
Time is now: 3rd December 2022 - 01:14:03