Welcome Guest ( Log In | Register )

> Releases Upload / Добавление релизов

Добавить релиз тут / Click here to add release
Рекомендованные обменники / Recommended file shares

 
Reply to this topicStart new topic
> Face Fucking Frenzy - Porta​​​-​​​Potty Gloryhole [ep] (2020), Goregrind
post Nov 24 2022, 14:19:07
Post #1

Serial Uploader
Group Icon
Group: V.I.P
Posts: 39,314
Releases: 37449
From: Lithuania
On Forums: 14 years 5 months
Thanks: 469671 time(s)
Lithuania


(IMG:https://metalarea.org/images/audiocovers/2022_Nov/acov_tid372820_thumb.jpg)

*Artist: Face Fucking Frenzy
*Album: Porta​​​-​​​Potty Gloryhole [ep]
*Year: 2020
*Genre: Goregrind
*Country: United States (IMG:https://metalarea.org/forum/style_images/flags/United%20States.png)
*Format: mp3@CBR320kbps
*Size: 20MB

Tracklist:
1. French Fries And Pubes Pt. 2 00:33
2. Bernie Mac Enema 00:59
3. Bob The Builder Is A Fag 00:14
4. Public Jerk Sessions 00:47
5. Interlude 00:54
6. Boulderfist Is My Favorite Band 00:48
7. Call Me Gay And Shove A Brick In My Ass (Feat. SxTxWxKxAxRx) 00:37
8. Corona Extra Virus 00:47
9. Crack Pipes And Fat Dykes 00:51
10. This Song Is Dedicated To Ms. Rad 01:07
******************************
Total playing time: 7:37



Technical info
(IMG:https://metalarea.org/images/spectrogram/2022_Nov/595276e71137877b390ea7e9f84ec35d.png)
Input File: 02. Bernie Mac Enema.mp3
Channels : 2
Sample Rate : 44100
Precision : 16-bit
Duration : 00:00:59.85 = 2639341 samples = 4488.68 CDDA sectors
File Size : 2.59M
Bit Rate : 347k
Sample Encoding: MPEG audio (layer I, II or III)
Comments :
Title=Bernie Mac Enema
Artist=Face Fucking Frenzy
Album=Porta​-​Potty Gloryhole
Tracknumber=2
Year=2020



Register


Thanks:
Go to the top of the page
  Insert nick Quick quote
+Quote Post

Reply to this topicStart new topic
1 User(s) are reading this topic (1 Guests and 0 Anonymous Users)
0 Members:

 



- Lo-Fi Version Support form
Copyrights and abuse reports form
Time is now: 5th December 2022 - 16:40:49