Welcome Guest ( Log In | Register )

> Releases Upload / Добавление релизов

Добавить релиз тут / Click here to add release
Рекомендованные обменники / Recommended file shares

 
Reply to this topicStart new topic
> Mantle - Endless Valley [demo] (2022), Atmospheric Black Metal
post Nov 24 2022, 14:40:14
Post #1

Правь статус, 616
**************
Group: Металариец
Posts: 8,245
Releases: 6541
From: 55°35’N 38°08’E
On Forums: 14 years 4 months
Thanks: 118684 time(s)
Russian Federation


(IMG:https://metalarea.org/images/audiocovers/2022_Nov/acov_tid372822_thumb.jpg)

*Artist: Mantle
*Album: Endless Valley [demo]
*Year: 2022
*Genre: Atmospheric Black Metal
*Country: Brazil (IMG:https://metalarea.org/forum/style_images/flags/Brazil.png)
*Format: mp3@CBR320kbps
*Size: 36MB

Tracklist:
1.Foreign 09:08
2.Stillness 05:47
******************************
Total playing time: 14:55



Technical info
(IMG:https://metalarea.org/images/spectrogram/2022_Nov/991d7dd706d84b49c6bdb28a8e2914c4.png)
Input File: 02 Stillness.mp3
Channels : 2
Sample Rate : 44100
Precision : 16-bit
Duration : 00:05:47.16 = 15309888 samples = 26037.2 CDDA sectors
File Size : 14.0M
Bit Rate : 322k
Sample Encoding: MPEG audio (layer I, II or III)
Comments :
Title=Stillness
Artist=Mantle
Album=Endless Valley (demo)
Tracknumber=2
Year=2022
Genre=Black Metal



Register


Go to the top of the page
  Insert nick Quick quote
+Quote Post

Reply to this topicStart new topic
1 User(s) are reading this topic (1 Guests and 0 Anonymous Users)
0 Members:

 



- Lo-Fi Version Support form
Copyrights and abuse reports form
Time is now: 5th December 2022 - 14:59:17