Welcome Guest ( Log In | Register )

> Releases Upload / Добавление релизов

Добавить релиз тут / Click here to add release
Рекомендованные обменники / Recommended file shares

 
Reply to this topicStart new topic
> Bombsack - Défequer Sur L'herbe [ep] (2021), Goregrind (D6)
post Nov 24 2022, 14:41:03
Post #1

Serial Uploader
Group Icon
Group: V.I.P
Posts: 39,314
Releases: 37449
From: Lithuania
On Forums: 14 years 5 months
Thanks: 469672 time(s)
Lithuania


(IMG:https://metalarea.org/images/audiocovers/2022_Nov/acov_tid372823_thumb.jpg)

*Artist: Bombsack
*Album: Défequer Sur L'herbe [ep]
*Year: 2021
*Genre: Goregrind
*Country: Belgium (IMG:https://metalarea.org/forum/style_images/flags/Belgium.png)
*Format: mp3@CBR320kbps
*Size: 31MB

Tracklist:
1. Worst Conspiracy Theories 01:47
2. Domheiditis 00:52
3. Aliveless 00:58
4. Roze Balletten 01:16
5. Varkensanus 01:24
6. From The Outside In 01:24
7. Chemtrails 00:52
8. Reptilians 00:35
9. Peter Evrard 01:26
10. Oleo 00:40
11. Metacomplot 01:06
******************************
Total playing time: 12:20



(IMG:https://metalarea.org/images/youtube.png)

Technical info
(IMG:https://metalarea.org/images/spectrogram/2022_Nov/12add6a43bc10e3c96632bdc252e2c36.png)
Input File: 05. Varkensanus.mp3
Channels : 2
Sample Rate : 44100
Precision : 16-bit
Duration : 00:01:24.75 = 3737255 samples = 6355.88 CDDA sectors
File Size : 3.52M
Bit Rate : 332k
Sample Encoding: MPEG audio (layer I, II or III)
Comments :
Title=Varkensanus
Artist=Bombsack
Album=Défequer sur l'herbe
Tracknumber=5
Year=2021



Register


Thanks:
Go to the top of the page
  Insert nick Quick quote
+Quote Post

Reply to this topicStart new topic
2 User(s) are reading this topic (2 Guests and 0 Anonymous Users)
0 Members:

 



- Lo-Fi Version Support form
Copyrights and abuse reports form
Time is now: 5th December 2022 - 16:46:42