Welcome Guest ( Log In | Register )

> Releases Upload / Добавление релизов

Добавить релиз тут / Click here to add release
Рекомендованные обменники / Recommended file shares

> Black Beast - Arctic Darkness (2022), Black Metal (D4)
post Nov 24 2022, 14:41:36
Post #1

 
Group Icon
Group: V.I.P
Posts: 2,069
Releases: 179
On Forums: 16 years 2 months
Thanks: 19186 time(s)
Unknown


(IMG:https://metalarea.org/images/audiocovers/2022_Nov/acov_tid372824_thumb.jpg)

*Artist: Black Beast
*Album: Arctic Darkness
*Year: 2022
*Genre: Black Metal
*Country: Finland (IMG:https://metalarea.org/forum/style_images/flags/Finland.png)
*Format: mp3@CBR320kbps
*Size: 114MB

Tracklist:
1. Intro 01:50
2. Black Magic and Witchcraft 04:27
3. Fullmoon 04:46
4. Sadistic Act in Demonic Lust 04:17
5. Four Days in Paradise of Fornication 03:25
6. Depths of Damnation 04:32
7. Kuoleman Kylmästä Kosketuksesta 01:48
8. Night of the Arctic Darkness 03:21
9. I am He 03:16
10. Summon the Angels 05:17
11. Hymn of the Freezing Wind 10:28
******************************
Total playing time: 47:27



Extended info
Primitive Reaction, November 25th


Technical info
(IMG:https://metalarea.org/images/spectrogram/2022_Nov/85ba888ae3c9a77045ba7337fff8146c.png)
Input File: 02 - Black Magic and Witchcraft.mp3
Channels : 2
Sample Rate : 44100
Precision : 16-bit
Duration : 00:04:26.60 = 11756928 samples = 19994.8 CDDA sectors
File Size : 11.2M
Bit Rate : 337k
Sample Encoding: MPEG audio (layer I, II or III)
Comments :
Title=Black Magic and Witchcraft
Artist=Black Beast
Album=Arctic Darkness
Tracknumber=2/11
Year=2022
Discnumber=1/1



Register


Go to the top of the page
  Insert nick Quick quote
+Quote Post
 
Start new topic
Replies (1 - 4)
post Nov 25 2022, 12:27:14
Post #2

Два Литра
**
Group: Завсегдатай
Posts: 156
Releases: 0
On Forums: 15 years 5 months
Thanks: 89 time(s)
Russian Federation


Последний трэк просто бомба.
Go to the top of the page
  Insert nick Quick quote
+Quote Post
post Nov 25 2022, 16:13:20
Post #3

Пять Литров
*****
Group: Металариец
Posts: 465
Releases: 1
On Forums: 14 years 6 months
Thanks: 237 time(s)
Russian Federation


Отлично! Все по канонам, как обычно! По первому прослушиванию, даже интереснее чем первый. Depths of Damnation мой фаворит на альбоме. Да что там говорить, для ценителей классического прочтения, самое оно!


Thanks:
Go to the top of the page
  Insert nick Quick quote
+Quote Post
post Nov 25 2022, 21:15:37
Post #4

пустое и необозримое
**************
Group: Металариец
Posts: 5,936
Releases: 0
On Forums: 6 years 10 months
Thanks: 3762 time(s)
Unknown


(IMG:style_emoticons/default/true_black.gif)
Go to the top of the page
  Insert nick Quick quote
+Quote Post
post Nov 29 2022, 19:29:58
Post #5

Литр
*
Group: Подсевший
Posts: 94
Releases: 16
On Forums: 8 months 1 day
Thanks: 450 time(s)
Russian Federation


Отличная чернуха. Зашел в разы больше предшественника.
Go to the top of the page
  Insert nick Quick quote
+Quote Post

Reply to this topicStart new topic
1 User(s) are reading this topic (1 Guests and 0 Anonymous Users)
0 Members:

 



- Lo-Fi Version Support form
Copyrights and abuse reports form
Time is now: 2nd December 2022 - 23:55:01