Welcome Guest ( Log In | Register )

> Releases Upload / Добавление релизов

Добавить релиз тут / Click here to add release
Рекомендованные обменники / Recommended file shares

 
Reply to this topicStart new topic
> Leather Heart - Leather Heart [ep] (2014), Heavy Metal
post Nov 24 2022, 14:52:59
Post #1

Serial Uploader
Group Icon
Group: V.I.P
Posts: 39,314
Releases: 37449
From: Lithuania
On Forums: 14 years 5 months
Thanks: 469660 time(s)
Lithuania


(IMG:https://metalarea.org/images/audiocovers/2022_Nov/acov_tid372826_thumb.jpg)

*Artist: Leather Heart
*Album: Leather Heart [ep]
*Year: 2014
*Genre: Heavy Metal
*Country: Spain (IMG:https://metalarea.org/forum/style_images/flags/Spain.png)
*Format: mp3@CBR320kbps
*Size: 76MB

Tracklist:
1. Nightmares Town 04:51
2. Take My Breath Away 04:14
3. Black as Night 04:05
4. Don't You Go 03:47
5. Leather Heart 04:56
6. Rock'N'Roll Soul (Bonus Live) 07:08
7. Take My Breath Away (Bonus Live) 04:28
******************************
Total playing time: 33:29


Preview 2


(IMG:https://metalarea.org/images/youtube.png)

Technical info
(IMG:https://metalarea.org/images/spectrogram/2022_Nov/f43beeed26d1f863aceab34e49543331.png)
Input File: 02. Take My Breath Away.mp3
Channels : 2
Sample Rate : 44100
Precision : 16-bit
Duration : 00:04:16.70 = 11320294 samples = 19252.2 CDDA sectors
File Size : 10.3M
Bit Rate : 320k
Sample Encoding: MPEG audio (layer I, II or III)
Comments :
Title=Take My Breath Away
Artist=Leather Heart
Album=Leather Heart (EP)
Tracknumber=2
Year=2015
Genre=Heavy Metal



Register


Go to the top of the page
  Insert nick Quick quote
+Quote Post

Reply to this topicStart new topic
1 User(s) are reading this topic (1 Guests and 0 Anonymous Users)
0 Members:

 



- Lo-Fi Version Support form
Copyrights and abuse reports form
Time is now: 5th December 2022 - 15:47:27