Welcome Guest ( Log In | Register )

> Releases Upload / Добавление релизов

Добавить релиз тут / Click here to add release
Рекомендованные обменники / Recommended file shares

> Vorgrum - Nature Emerge [ep] (2022), Folk/Pagan Metal (D4)
post Nov 24 2022, 14:58:35
Post #1

Правь статус, ####!111
**************
Group: Металариец
Posts: 4,151
Releases: 2612
On Forums: 12 years 2 weeks
Thanks: 47656 time(s)
Russian Federation


(IMG:https://metalarea.org/images/audiocovers/2022_Nov/acov_tid372828_thumb.jpg)

*Artist: Vorgrum
*Album: Nature Emerge [ep]
*Year: 2022
*Genre: Folk/Pagan Metal
*Country: Argentina (IMG:https://metalarea.org/forum/style_images/flags/Argentina.png)
*Format: mp3@CBR320kbps
*Size: 42MB

Tracklist:
01.Time to Return 04:50
02.The Path 04:16
03.A New Road 04:36
04.Nature Emerge 04:19
******************************
Total playing time: 18:01

(IMG:https://metalarea.org/images/youtube.png)

Technical info
(IMG:https://metalarea.org/images/spectrogram/2022_Nov/542030df9cadb4f2665ba3a578a4ca2b.png)
Input File: 02 - The Path.mp3
Channels : 2
Sample Rate : 44100
Precision : 16-bit
Duration : 00:04:16.00 = 11289600 samples = 19200 CDDA sectors
File Size : 10.4M
Bit Rate : 325k
Sample Encoding: MPEG audio (layer I, II or III)
Comments :
Title=The Path
Artist=Vorgrum
Album=Nature Emerge
Tracknumber=2
Year=2022
Discnumber=1



Register


Go to the top of the page
  Insert nick Quick quote
+Quote Post
 
Start new topic
Replies (1 - 1)
post Nov 24 2022, 18:11:09
Post #2

Маньяк
**********
Group: Металариец
Posts: 1,038
Releases: 0
From: Харьков
On Forums: 14 years 9 months
Thanks: 886 time(s)
Ukraine


Облога "Голубой голый мужик заглядывается на палки" (IMG:style_emoticons/default/1488.gif)
Go to the top of the page
  Insert nick Quick quote
+Quote Post

Reply to this topicStart new topic
1 User(s) are reading this topic (1 Guests and 0 Anonymous Users)
0 Members:

 



- Lo-Fi Version Support form
Copyrights and abuse reports form
Time is now: 5th December 2022 - 16:16:39