Welcome Guest ( Log In | Register )

> Releases Upload / Добавление релизов

Добавить релиз тут / Click here to add release
Рекомендованные обменники / Recommended file shares

> Depressive Witches - Distant Kingdoms (2022), Black Metal/Black 'n' Roll
post Nov 24 2022, 15:02:57
Post #1

Serial Uploader
Group Icon
Group: V.I.P
Posts: 39,314
Releases: 37449
From: Lithuania
On Forums: 14 years 5 months
Thanks: 469662 time(s)
Lithuania


(IMG:https://metalarea.org/images/audiocovers/2022_Nov/acov_tid372829_thumb.jpg)

*Artist: Depressive Witches
*Album: Distant Kingdoms
*Year: 2022
*Genre: Black Metal/Black 'n' Roll
*Country: France (IMG:https://metalarea.org/forum/style_images/flags/France.png)
*Format: mp3@CBR320kbps
*Size: 110MB

Tracklist:
1. Distant Kingdoms 05:29
2. In the Hall of the Sleeping King 06:44
3. Oh My Dear Wyvern 04:47
4. Wizard! Open the Gates! 05:28
5. Pit of Goblins 06:19
6. Tonight I Will Hide My Heart in Space 05:41
7. Forgotten Icebergs 03:50
8. Cancel Your Wedding and Fuck the Witch 04:44
9. A Land to Lead 02:57
******************************
Total playing time: 45:59


Preview 2

(IMG:https://metalarea.org/images/youtube.png)

Technical info
(IMG:https://metalarea.org/images/spectrogram/2022_Nov/4b1e6bd06afb3a22aeaef896918dd72e.png)
Input File: 02 In the Hall of the Sleeping King.mp3
Channels : 2
Sample Rate : 44100
Precision : 16-bit
Duration : 00:06:44.55 = 17840831 samples = 30341.5 CDDA sectors
File Size : 16.8M
Bit Rate : 333k
Sample Encoding: MPEG audio (layer I, II or III)
Comments :
Title=In the Hall of the Sleeping King
Artist=Depressive Witches
Album=Distant Kingdoms
Tracknumber=2/9/9
Year=2022
Genre=Metal
Discnumber=1/1/1



Register


Go to the top of the page
  Insert nick Quick quote
+Quote Post
 
Start new topic
Replies (1 - 2)
post Nov 24 2022, 22:27:37
Post #2

Добрейшей души Мегаманьяк
**************
Group: Металариец
Posts: 2,077
Releases: 0
From: Bashkortostan, Таптыҡ
On Forums: 14 years 9 months
Thanks: 994 time(s)
Russian Federation


Братья-пацанята наслушавшись INQUISITION выдали свой блэчок. Потянет такто.
Go to the top of the page
  Insert nick Quick quote
+Quote Post
post Nov 28 2022, 14:58:07
Post #3
BAN
RO till
Dec 7 2022, 19:26:25



Блэк рок не блэкенрольный.
Go to the top of the page
  Insert nick Quick quote
+Quote Post

Reply to this topicStart new topic
1 User(s) are reading this topic (1 Guests and 0 Anonymous Users)
0 Members:

 



- Lo-Fi Version Support form
Copyrights and abuse reports form
Time is now: 5th December 2022 - 16:28:48