Welcome Guest ( Log In | Register )

> Releases Upload / Добавление релизов

Добавить релиз тут / Click here to add release
Рекомендованные обменники / Recommended file shares

 
Reply to this topicStart new topic
> Valiant - Ruinous, The Thereafter [ep] (2022), Epic Atmospheric Black Metal (D8)
post Nov 24 2022, 15:12:26
Post #1

Serial Uploader
Group Icon
Group: V.I.P
Posts: 39,314
Releases: 37449
From: Lithuania
On Forums: 14 years 5 months
Thanks: 469660 time(s)
Lithuania


(IMG:https://metalarea.org/images/audiocovers/2022_Nov/acov_tid372831_thumb.jpg)

*Artist: Valiant
*Album: Ruinous, The Thereafter [ep]
*Year: 2022
*Genre: Epic Atmospheric Black Metal
*Country: United States (IMG:https://metalarea.org/forum/style_images/flags/United%20States.png)
*Format: mp3@CBR320kbps
*Size: 50MB

Tracklist:
1. In Eons Of Imperial Forsaking 05:28
2. Elysium Through Hierarchy 04:15
3. A Ruling Of Undying Blight 05:34
4. Begone The Malediction Of Perpetuity 06:14
******************************
Total playing time: 21:31




Technical info
(IMG:https://metalarea.org/images/spectrogram/2022_Nov/b5ad9fbbbff8679f55f582331b1e4659.png)
Input File: 02 - Elysium through Hierarchy.mp3
Channels : 2
Sample Rate : 44100
Precision : 16-bit
Duration : 00:04:15.36 = 11261552 samples = 19152.3 CDDA sectors
File Size : 10.6M
Bit Rate : 331k
Sample Encoding: MPEG audio (layer I, II or III)
Comments :
Title=Elysium through Hierarchy
Artist=Valiant E.A.B.M
Album=Ruinous, the Thereafter
Tracknumber=2/4
Year=2022
Discnumber=1/1



Register


Go to the top of the page
  Insert nick Quick quote
+Quote Post

Reply to this topicStart new topic
2 User(s) are reading this topic (2 Guests and 0 Anonymous Users)
0 Members:

 



- Lo-Fi Version Support form
Copyrights and abuse reports form
Time is now: 5th December 2022 - 15:19:34