Welcome Guest ( Log In | Register )

> Releases Upload / Добавление релизов

Добавить релиз тут / Click here to add release
Рекомендованные обменники / Recommended file shares

 
Reply to this topicStart new topic
> Utero De Nocte - Die Verlorene Wahrheit [ep] (2022), Black Metal
post Nov 24 2022, 15:25:17
Post #1

Serial Uploader
Group Icon
Group: V.I.P
Posts: 39,314
Releases: 37449
From: Lithuania
On Forums: 14 years 5 months
Thanks: 469660 time(s)
Lithuania


(IMG:https://metalarea.org/images/audiocovers/2022_Nov/acov_tid372833_thumb.jpg)

*Artist: Utero De Nocte
*Album: Die Verlorene Wahrheit [ep]
*Year: 2022
*Genre: Black Metal
*Country: Russian Federation (IMG:https://metalarea.org/forum/style_images/flags/Russian%20Federation.png)
*Format: mp3@CBR320kbps
*Size: 35MB

Tracklist:
01. Nomad 02:22
02. A Shard Of Time 03:14
03. A Dream Within A Dream 04:36
04. Die Verlorene Wahrheit 05:07
******************************
Total playing time: 15:19

(IMG:https://metalarea.org/images/youtube.png)

Technical info
(IMG:https://metalarea.org/images/spectrogram/2022_Nov/2fe703ac8b7ee55fc8d394e7b0bd33c5.png)
Input File: 02 A Shard Of Time.mp3
Channels : 2
Sample Rate : 44100
Precision : 16-bit
Duration : 00:03:14.36 = 8571276 samples = 14577 CDDA sectors
File Size : 7.77M
Bit Rate : 320k
Sample Encoding: MPEG audio (layer I, II or III)
Comments :
Title=A Shard Of Time
Artist=Utero De Nocte
Album=Die Verlorene Wahrheit
Tracknumber=2
Year=2022
Genre=Black Metal



Register


Go to the top of the page
  Insert nick Quick quote
+Quote Post

Reply to this topicStart new topic
1 User(s) are reading this topic (1 Guests and 0 Anonymous Users)
0 Members:

 



- Lo-Fi Version Support form
Copyrights and abuse reports form
Time is now: 5th December 2022 - 16:23:08