Welcome Guest ( Log In | Register )

> Releases Upload / Добавление релизов

Добавить релиз тут / Click here to add release
Рекомендованные обменники / Recommended file shares

> Merdok - Prologue [ep] (2022), Death/Thrash Metal
post Nov 24 2022, 15:25:29
Post #1

Правь статус, ####!111
**************
Group: Металариец
Posts: 4,117
Releases: 2584
On Forums: 12 years 2 weeks
Thanks: 47050 time(s)
Russian Federation


(IMG:https://metalarea.org/images/audiocovers/2022_Nov/acov_tid372834_thumb.jpg)

*Artist: Merdok
*Album: Prologue [ep]
*Year: 2022
*Genre: Death/Thrash Metal
*Country: Russian Federation (IMG:https://metalarea.org/forum/style_images/flags/Russian%20Federation.png)
*Format: mp3@CBR320kbps
*Size: 44MB

Tracklist:
1.Preacher of Hate 05:24
2.Birdman 04:10
3.On Our Graves 05:54
4.March of Dissents 04:28
******************************
Total playing time: 19:56



Technical info
(IMG:https://metalarea.org/images/spectrogram/2022_Nov/ce0a00528bb8d2e5d27dadb393367c32.png)
Input File: 02. Birdman.mp3
Channels : 2
Sample Rate : 44100
Precision : 16-bit
Duration : 00:04:12.56 = 11137984 samples = 18942.1 CDDA sectors
File Size : 10.1M
Bit Rate : 320k
Sample Encoding: MPEG audio (layer I, II or III)
Comments :
Title=Birdman
Artist=Merdok
Album=Prologue
Tracknumber=2
Year=2022
Genre=Death/Thrash Metal



Register


Go to the top of the page
  Insert nick Quick quote
+Quote Post
 
Start new topic
Replies (1 - 2)
post Nov 24 2022, 17:32:10
Post #2

Девять Литров
*********
Group: Металариец
Posts: 997
Releases: 0
From: Россия
On Forums: 14 years 4 months
Thanks: 555 time(s)
Russian Federation


Бесценно.
Как в детство вернуться - вот он я, малыш 30-летний, иду на городскую "тучу", несу в руках какую-то членобору типа Edge of Sanity, притом на кассете.
Спасибо вам огромное, что иногда позволяете жить параллельной жизнью
Go to the top of the page
  Insert nick Quick quote
+Quote Post
post Nov 24 2022, 20:02:49
Post #3
BAN
RO till
Dec 7 2022, 19:26:25



Придэтхованно-приблэкхованный трэш митол. Можно послушать, но без фанатизма.
Go to the top of the page
  Insert nick Quick quote
+Quote Post

Reply to this topicStart new topic
1 User(s) are reading this topic (1 Guests and 0 Anonymous Users)
0 Members:

 



- Lo-Fi Version Support form
Copyrights and abuse reports form
Time is now: 3rd December 2022 - 01:08:25