Welcome Guest ( Log In | Register )

> Releases Upload / Добавление релизов

Добавить релиз тут / Click here to add release
Рекомендованные обменники / Recommended file shares

 
Reply to this topicStart new topic
> Voidwards - Amidst The Ocean Of Fog [ep] (2022), Black Metal
post Nov 24 2022, 15:44:08
Post #1

Serial Uploader
Group Icon
Group: V.I.P
Posts: 39,314
Releases: 37449
From: Lithuania
On Forums: 14 years 5 months
Thanks: 469659 time(s)
Lithuania


(IMG:https://metalarea.org/images/audiocovers/2022_Nov/acov_tid372836_thumb.jpg)

*Artist: Voidwards
*Album: Amidst The Ocean Of Fog [ep]
*Year: 2022
*Genre: Black Metal
*Country: Russian Federation (IMG:https://metalarea.org/forum/style_images/flags/Russian%20Federation.png)
*Format: mp3@CBR320kbps
*Size: 59MB

Tracklist:
1. Amidst the Ocean of Fog: to the Forces Unseen 11:38
2. Amidst the Ocean of Fog: the Ghosts 14:14
******************************
Total playing time: 25:52



Technical info
(IMG:https://metalarea.org/images/spectrogram/2022_Nov/e6037b12673378993b798cfb1686385b.png)
Input File: 01. Amidst the Ocean of Fog- to the Forces Unseen.mp3
Channels : 2
Sample Rate : 44100
Precision : 16-bit
Duration : 00:11:38.11 = 30786563 samples = 52358.1 CDDA sectors
File Size : 28.0M
Bit Rate : 321k
Sample Encoding: MPEG audio (layer I, II or III)
Comments :
Title=Amidst the Ocean of Fog: to the Forces Unseen
Artist=Voidwards
Album=Amidst the Ocean of Fog
Tracknumber=1
Year=2022



Register


Go to the top of the page
  Insert nick Quick quote
+Quote Post

Reply to this topicStart new topic
1 User(s) are reading this topic (1 Guests and 0 Anonymous Users)
0 Members:

 



- Lo-Fi Version Support form
Copyrights and abuse reports form
Time is now: 5th December 2022 - 14:52:31