Welcome Guest ( Log In | Register )

> Releases Upload / Добавление релизов

Добавить релиз тут / Click here to add release
Рекомендованные обменники / Recommended file shares

 
Reply to this topicStart new topic
> Alienforest - Extraterrestrial Evidence (2022), Experimental Death Metal
post Nov 24 2022, 15:54:28
Post #1

Serial Uploader
Group Icon
Group: V.I.P
Posts: 39,314
Releases: 37449
From: Lithuania
On Forums: 14 years 5 months
Thanks: 469672 time(s)
Lithuania


(IMG:https://metalarea.org/images/audiocovers/2022_Nov/acov_tid372837_thumb.jpg)

*Artist: Alienforest
*Album: Extraterrestrial Evidence
*Year: 2022
*Genre: Experimental Death Metal
*Country: Russian Federation (IMG:https://metalarea.org/forum/style_images/flags/Russian%20Federation.png)
*Format: mp3@CBR320kbps
*Size: 104MB

Tracklist:
1. Impact Event I 07:51
2. Impact Event II 08:29
3. Impact Event III 06:52
4. Impact Crater I 09:11
5. Impact Crater II 12:28
******************************
Total playing time: 44:51


(IMG:https://metalarea.org/images/youtube.png)

Technical info
(IMG:https://metalarea.org/images/spectrogram/2022_Nov/78d7629cada7aa6df798f44dedbf82f5.png)
Input File: 02. Impact Event II.mp3
Channels : 2
Sample Rate : 44100
Precision : 16-bit
Duration : 00:08:29.78 = 22481342 samples = 38233.6 CDDA sectors
File Size : 20.7M
Bit Rate : 324k
Sample Encoding: MPEG audio (layer I, II or III)
Comments :
Title=Impact Event II
Artist=Alienforest
Album=Extraterrestrial Evidence
Tracknumber=2
Year=2022



Register


Go to the top of the page
  Insert nick Quick quote
+Quote Post

Reply to this topicStart new topic
2 User(s) are reading this topic (2 Guests and 0 Anonymous Users)
0 Members:

 



- Lo-Fi Version Support form
Copyrights and abuse reports form
Time is now: 5th December 2022 - 16:41:49