Welcome Guest ( Log In | Register )

> Releases Upload / Добавление релизов

Добавить релиз тут / Click here to add release
Рекомендованные обменники / Recommended file shares

 
Reply to this topicStart new topic
> Lykotonon - Promethean Pathology (2022), Avant-Garde Black/Death Metal
post Nov 24 2022, 16:16:50
Post #1

Serial Uploader
Group Icon
Group: V.I.P
Posts: 39,314
Releases: 37449
From: Lithuania
On Forums: 14 years 5 months
Thanks: 469659 time(s)
Lithuania


(IMG:https://metalarea.org/images/audiocovers/2022_Nov/acov_tid372838_thumb.jpg)

*Artist: Lykotonon
*Album: Promethean Pathology
*Year: 2022
*Genre: Avant-Garde Black/Death Metal
*Country: United States (IMG:https://metalarea.org/forum/style_images/flags/United%20States.png)
*Format: mp3@CBR320kbps
*Size: 89MB

Tracklist:
1. The Apocryphal Self 06:50
2. Wrested from Solace 05:50
3. Apeiron 02:13
4. Psychosocratic 05:25
5. The Primal Principle 05:08
6. That Which Stares in Kind 06:33
7. Seeing Silver in Shadow 07:16
******************************
Total playing time: 39:15


(IMG:https://metalarea.org/images/youtube.png)

Technical info
(IMG:https://metalarea.org/images/spectrogram/2022_Nov/2829a4942386685decc8c492af004eed.png)
Input File: 02. Wrested From Solace.mp3
Channels : 2
Sample Rate : 44100
Precision : 16-bit
Duration : 00:05:53.03 = 15568447 samples = 26477 CDDA sectors
File Size : 14.1M
Bit Rate : 320k
Sample Encoding: MPEG audio (layer I, II or III)
Comments :
Title=Wrested From Solace
Artist=Lykotonon
Album=Promethean Pathology
Tracknumber=2
Year=2022
Genre=Industrial Black Metal



Register


Go to the top of the page
  Insert nick Quick quote
+Quote Post

Reply to this topicStart new topic
2 User(s) are reading this topic (2 Guests and 0 Anonymous Users)
0 Members:

 



- Lo-Fi Version Support form
Copyrights and abuse reports form
Time is now: 5th December 2022 - 14:38:04