Welcome Guest ( Log In | Register )

> Releases Upload / Добавление релизов

Добавить релиз тут / Click here to add release
Рекомендованные обменники / Recommended file shares

> Witchmaster - Kaźń (2022), Black/Thrash Metal (D)
post Nov 24 2022, 16:27:53
Post #1

Serial Uploader
Group Icon
Group: V.I.P
Posts: 39,314
Releases: 37449
From: Lithuania
On Forums: 14 years 5 months
Thanks: 469660 time(s)
Lithuania


(IMG:https://metalarea.org/images/audiocovers/2022_Nov/acov_tid372839_thumb.jpg)

*Artist: Witchmaster
*Album: Kaźń
*Year: 2022
*Genre: Black/Thrash Metal
*Country: Poland (IMG:https://metalarea.org/forum/style_images/flags/Poland.png)
*Format: mp3@CBR320kbps
*Size: 88MB

Tracklist:
1. Sound of Crushed Skull / Intro 00:23
2. War Metal Haiku 01:57
3. Alle Gegen Alle 02:30
4. Poison Chalice 02:12
5. Zdychaj K**** Nazareńska 02:50
6. All-consuming Hate 04:08
7. Circle of Bayonets 03:07
8. Hostile Declaration 02:50
9. Master Knife Sacrifice 03:18
10. Like Flies on Scum 03:19
11. Rune of Destruction 02:27
12. White Madness 02:58
13. Trails of Blood 03:10
14. Kaźń 02:51
******************************
Total playing time: 38:00




(IMG:https://metalarea.org/images/youtube.png)

Technical info
(IMG:https://metalarea.org/images/spectrogram/2022_Nov/21e1e55c92af4e9ffd562cdf50f855c4.png)
Input File: 03 - Alle Gegen Alle.mp3
Channels : 2
Sample Rate : 44100
Precision : 16-bit
Duration : 00:02:30.00 = 6615000 samples = 11250 CDDA sectors
File Size : 6.13M
Bit Rate : 327k
Sample Encoding: MPEG audio (layer I, II or III)
Comments :
Title=Alle Gegen Alle
Artist=Witchmaster
Album=Kaźń
Tracknumber=3
Year=2022
Discnumber=1



Register


Go to the top of the page
  Insert nick Quick quote
+Quote Post
 
Start new topic
Replies (1 - 1)
post Nov 24 2022, 18:28:35
Post #2

Шесть Литров
******
Group: Металариец
Posts: 529
Releases: 7
From: минск сити
On Forums: 13 years 5 months
Thanks: 673 time(s)
Belarus


как говорят в поляндии - з[мат->бан]ишче (IMG:style_emoticons/default/9.gif)
Go to the top of the page
  Insert nick Quick quote
+Quote Post

Reply to this topicStart new topic
2 User(s) are reading this topic (2 Guests and 0 Anonymous Users)
0 Members:

 



- Lo-Fi Version Support form
Copyrights and abuse reports form
Time is now: 5th December 2022 - 15:01:22