Welcome Guest ( Log In | Register )

> Releases Upload / Добавление релизов

Добавить релиз тут / Click here to add release
Рекомендованные обменники / Recommended file shares

 
Reply to this topicStart new topic
> Among Them In Trenches - Drifter In The Woods [ep] (2022), Death Metal/Grindcore
post Nov 24 2022, 16:45:48
Post #1

Serial Uploader
Group Icon
Group: V.I.P
Posts: 39,314
Releases: 37449
From: Lithuania
On Forums: 14 years 5 months
Thanks: 469459 time(s)
Lithuania


(IMG:https://metalarea.org/images/audiocovers/2022_Nov/acov_tid372840_thumb.jpg)

*Artist: Among Them In Trenches
*Album: Drifter In The Woods [ep]
*Year: 2022
*Genre: Death Metal/Grindcore
*Country: United States (IMG:https://metalarea.org/forum/style_images/flags/United%20States.png)
*Format: mp3@CBR320kbps
*Size: 27MB

Tracklist:
1. Intro 00:58
2. The Filth 02:42
3. Drifter in the Woods 02:22
4. Cerebral Tear 02:20
5. Devastator 02:54
6. Inhuman Exertion 03:24
******************************
Total playing time: 14:40



(IMG:https://metalarea.org/images/youtube.png)

Technical info
(IMG:https://metalarea.org/images/spectrogram/2022_Nov/7ef7fbc53d3d8a1e008b72a4d92d86d2.png)
Input File: 04. Cerebral Tear.mp3
Channels : 2
Sample Rate : 44100
Precision : 16-bit
Duration : 00:02:20.76 = 6207428 samples = 10556.9 CDDA sectors
File Size : 5.63M
Bit Rate : 320k
Sample Encoding: MPEG audio (layer I, II or III)
Comments :
Title=Cerebral Tear
Artist=Among Them In Trenches
Album=Drifter In The Woods
Tracknumber=4
Year=2022
Genre=Deathcore



Register


Go to the top of the page
  Insert nick Quick quote
+Quote Post

Reply to this topicStart new topic
2 User(s) are reading this topic (2 Guests and 0 Anonymous Users)
0 Members:

 



- Lo-Fi Version Support form
Copyrights and abuse reports form
Time is now: 3rd December 2022 - 00:50:53