Welcome Guest ( Log In | Register )

> Releases Upload / Добавление релизов

Добавить релиз тут / Click here to add release
Рекомендованные обменники / Recommended file shares

> Ciminero - Shadows Digging The Grave (2022), Doom Metal/Occult Rock
post Nov 24 2022, 17:14:55
Post #1

Правь статус, ####!111
**************
Group: Металариец
Posts: 4,147
Releases: 2612
On Forums: 12 years 2 weeks
Thanks: 47633 time(s)
Russian Federation


(IMG:https://metalarea.org/images/audiocovers/2022_Nov/acov_tid372841_thumb.jpg)

*Artist: Ciminero
*Album: Shadows Digging The Grave
*Year: 2022
*Genre: Doom Metal/Occult Rock
*Country: International (IMG:https://metalarea.org/forum/style_images/flags/International.png)
*Format: mp3@CBR320kbps
*Size: 91MB

Tracklist:
01.Invoke Me 03:12
02.Torment 05:09
03.Ring of Perpetual Insanity 05:34
04.Yearning and Insurgency from the Empyrean 03:08
05.Deep Red Forest 04:38
06.Inner Child 04:42
07.The Leaper 03:51
08.Nettare d'Estasi 04:30
09.Underworld Coven 04:43
******************************
Total playing time: 39:27

(IMG:https://metalarea.org/images/youtube.png)

Extended info
Finland/Italy


Technical info
(IMG:https://metalarea.org/images/spectrogram/2022_Nov/d5a35a4b6678b4e791bc71d9edd44404.png)
Input File: 04 - Yearning and Insurgency from the Empyrean.mp3
Channels : 2
Sample Rate : 44100
Precision : 16-bit
Duration : 00:03:07.91 = 8286919 samples = 14093.4 CDDA sectors
File Size : 7.60M
Bit Rate : 323k
Sample Encoding: MPEG audio (layer I, II or III)
Comments :
Title=Yearning and Insurgency from the Empyrean
Artist=Ciminero
Album=Shadows Digging the Grave
Tracknumber=4/9
Year=2022
Discnumber=1/1



Register


Go to the top of the page
  Insert nick Quick quote
+Quote Post
 
Start new topic
Replies (1 - 2)
post Nov 25 2022, 19:08:59
Post #2

Group: Подсевший
Posts: 44
Releases: 4
On Forums: 13 years 9 months
Thanks: 53 time(s)
Russian Federation




Thanks:
(1) randumbum,
Go to the top of the page
  Insert nick Quick quote
+Quote Post
post Nov 26 2022, 15:00:58
Post #3

Восемь Литров
********
Group: Металариец
Posts: 822
Releases: 0
From: Лыткарино
On Forums: 3 years 6 months
Thanks: 226 time(s)
Russian Federation


Скучная вещь с безголосым вокалистом. 4/10
Go to the top of the page
  Insert nick Quick quote
+Quote Post

Reply to this topicStart new topic
1 User(s) are reading this topic (1 Guests and 0 Anonymous Users)
0 Members:

 



- Lo-Fi Version Support form
Copyrights and abuse reports form
Time is now: 5th December 2022 - 15:00:09