Welcome Guest ( Log In | Register )

Объявления

* gmail.com упорно продолжает считать почту с нас "unsolicited" и отбивает в том числе и письма активации, поэтому просьба использовать альтернативные почтовые ящики.
------------
* gmail.com continues reject all mail from us as "unsolicited" (activation mails too) therefore please use alternate mail servers.
 
Reply to this topicStart new topic
> Hell9 - Phoenix Reborn (2022), Melodic Death Metal
post Dec 1 2022, 12:17:56
Post #1

Правь статус, ####!111
**************
Group: Металариец
Posts: 36,437
Releases: 27170
From: Г.Харьков
On Forums: 12 years 2 months
Thanks: 591908 time(s)
Ukraine


(IMG:http://metalarea.org/images/audiocovers/2022_Dec/acov_tid373146_thumb.jpg)

*Artist: Hell9
*Album: Phoenix Reborn
*Year: 2022
*Genre: Melodic Death Metal
*Country: United States (IMG:http://metalarea.org/forum/style_images/flags/United%20States.png)
*Format: mp3@CBR320kbps
*Size: 67MB

Tracklist:
01. Nothing 03:23
02. They All Burn 03:07
03. Blackout 03:07
04. The Child 03:36
05. We are Leaving This World 04:09
06. Creature of a Thousand Masks 03:36
07. Endless Chaos 03:33
08. Our Own Enemies 03:40
******************************
Total playing time: 28:11




Extended info
Xavier - Vocals
Racso - Guitars/Synth
Javier - Bass Guitar
Vitaliy - Drums


Technical info
(IMG:http://metalarea.org/images/spectrogram/2022_Dec/cc18647ca26e2cec8e4e05a2e8195c94.png)
Input File: 05 - We are Leaving This World.mp3
Channels : 2
Sample Rate : 44100
Precision : 16-bit
Duration : 00:04:09.00 = 10980900 samples = 18675 CDDA sectors
File Size : 10.3M
Bit Rate : 330k
Sample Encoding: MPEG audio (layer I, II or III)
Comments :
Title=We are Leaving This World
Artist=Hell9
Album=Phoenix Reborn
Tracknumber=5
Year=2022-12-02
Genre=Metal
Discnumber=1



Register


Go to the top of the page
  Insert nick Quick quote
+Quote Post

Reply to this topicStart new topic
1 User(s) are reading this topic (1 Guests and 0 Anonymous Users)
0 Members:

 



- Lo-Fi Version Support form
Copyrights and abuse reports form
Time is now: 19th July 2024 - 13:54:36