Welcome Guest ( Log In | Register )

Объявления

* gmail.com упорно продолжает считать почту с нас "unsolicited" и отбивает в том числе и письма активации, поэтому просьба использовать альтернативные почтовые ящики.
------------
* gmail.com continues reject all mail from us as "unsolicited" (activation mails too) therefore please use alternate mail servers.
 
Reply to this topicStart new topic
> Apostasy - The Unknown Path [ep] (2020), Blackened Thrash Metal (D25)
post Dec 4 2022, 20:11:45
Post #1

Правь статус, 616
**************
Group: Металариец
Posts: 10,835
Releases: 8823
From: 55°35’N 38°08’E
On Forums: 15 years 11 months
Thanks: 157084 time(s)
Russian Federation


(IMG:https://metalarea.org/images/audiocovers/2022_Dec/acov_tid373365_thumb.jpg)

*Artist: Apostasy
*Album: The Unknown Path [ep]
*Year: 2020
*Genre: Blackened Thrash Metal
*Country: Chile (IMG:https://metalarea.org/forum/style_images/flags/Chile.png)
*Format: mp3@CBR320kbps
*Size: 30MB

Tracklist:
1.Defeating the Speed 03:20
2.Sign of Saturnus 02:54
3.The Shining Light 04:56
******************************
Total playing time: 11:10



(IMG:https://metalarea.org/images/youtube.png)

Technical info
(IMG:https://metalarea.org/images/spectrogram/2022_Dec/10b9992b9b313e595be77d807a9643d8.png)
Input File: 01 Defeating the Speed.mp3
Channels : 2
Sample Rate : 44100
Precision : 16-bit
Duration : 00:03:20.27 = 8831819 samples = 15020.1 CDDA sectors
File Size : 8.14M
Bit Rate : 325k
Sample Encoding: MPEG audio (layer I, II or III)
Comments :
Title=Defeating the Speed
Artist=Apostasy
Album=The Unknown Path
Tracknumber=1
Year=2022
Genre=Black/Thrash Metal



Register


Go to the top of the page
  Insert nick Quick quote
+Quote Post

Reply to this topicStart new topic
1 User(s) are reading this topic (1 Guests and 0 Anonymous Users)
0 Members:

 



- Lo-Fi Version Support form
Copyrights and abuse reports form
Time is now: 20th June 2024 - 17:34:39