Welcome Guest ( Log In | Register )

Объявления

* gmail.com упорно продолжает считать почту с нас "unsolicited" и отбивает в том числе и письма активации, поэтому просьба использовать альтернативные почтовые ящики.
------------
* gmail.com continues reject all mail from us as "unsolicited" (activation mails too) therefore please use alternate mail servers.
> Łūt & Nāv - Łūt/Nāv [split] (2022), Sludge/Drone/Doom Metal/Instrumental | Black Metal (D4)
post Dec 5 2022, 18:04:10
Post #1

Правь статус, ####!111
**************
Group: Металариец
Posts: 7,721
Releases: 7061
From: Одесса
On Forums: 16 years 1 month
Thanks: 82389 time(s)
Ukraine


(IMG:http://metalarea.org/images/audiocovers/2022_Dec/acov_tid373402_thumb.jpg)

*Artist: Łūt & Nāv
*Album: Łūt/Nāv [split]
*Year: 2022
*Genre: Sludge/Drone/Doom Metal/Instrumental | Black Metal
*Country: Czech Republic (IMG:http://metalarea.org/forum/style_images/flags/Czech%20Republic.png) | Czech Republic (IMG:http://metalarea.org/forum/style_images/flags/Czech%20Republic.png)
*Format: mp3@CBR320kbps
*Size: 44MB

Tracklist:
Łūt:
1. V 03:04
2. VI 06:00
Nāv:
3. Zpěv 03:18
4. Co znamená vésti koně 06:02
******************************
Total playing time: 18:24




Technical info
(IMG:http://metalarea.org/images/spectrogram/2022_Dec/b7fde09aaa210dff307f8553799c5c91.png)
Input File: 01. V.mp3
Channels : 2
Sample Rate : 48000
Precision : 16-bit
Duration : 00:03:04.35 = 8848656 samples ~ 13826 CDDA sectors
File Size : 7.37M
Bit Rate : 320k
Sample Encoding: MPEG audio (layer I, II or III)
Comments :
Title=V
Artist=Lut
Album=Lut / Nav (Split)
Tracknumber=1
Year=2022
Genre=Sludge | Drone | Doom Metal | Instrumental



Register


Go to the top of the page
  Insert nick Quick quote
+Quote Post
 
Start new topic
Replies (1 - 4)
post Dec 5 2022, 21:25:46
Post #2

Шесть Литров
******
Group: Металариец
Posts: 602
Releases: 10
From: минск сити
On Forums: 15 years 4 weeks
Thanks: 1038 time(s)
Belarus


Łūt супер. Пойду искать первые 4 трека (IMG:style_emoticons/default/metaler.gif)


Thanks:
(1) Branis,
Go to the top of the page
  Insert nick Quick quote
+Quote Post
post Dec 6 2022, 07:11:52
Post #3

Два Литра
**
Group: Завсегдатай
Posts: 128
Releases: 5
From: Москва
On Forums: 18 years 2 months
Thanks: 197 time(s)
Russian Federation


ЦИТАТА(дивин @ Dec 5 2022, 21:25:46) *
Łūt супер. Пойду искать первые 4 трека (IMG:style_emoticons/default/metaler.gif)

Согласен....
редко такое мне нравится.. но тут Офигенно!!!
Go to the top of the page
  Insert nick Quick quote
+Quote Post
post Dec 19 2022, 17:34:26
Post #4

Русский
********
Group: Металариец
Posts: 839
Releases: 0
From: Москва
On Forums: 17 years 10 months
Thanks: 265 time(s)
Russian Federation


name your price этот и предыдущий.
Go to the top of the page
  Insert nick Quick quote
+Quote Post
post Dec 19 2022, 19:12:19
Post #5

Шесть Литров
******
Group: Металариец
Posts: 602
Releases: 10
From: минск сити
On Forums: 15 years 4 weeks
Thanks: 1038 time(s)
Belarus


ЦИТАТА(denver @ 19th December 2022 - 19:34:26) *
name your price этот и предыдущий.

Да, Lut первые 4 трэка были стянуты с бэндкэмпа в тот же день. Но для самых ленивых выложу и здесь (IMG:style_emoticons/default/smile1.gif)
Ł​Ū​T - Ł​Ū​T (2022) mp3@320 ~64mb
Register


Thanks:
(1) Veggr,
Go to the top of the page
  Insert nick Quick quote
+Quote Post

Reply to this topicStart new topic
1 User(s) are reading this topic (1 Guests and 0 Anonymous Users)
0 Members:

 



- Lo-Fi Version Support form
Copyrights and abuse reports form
Time is now: 23rd July 2024 - 21:31:09